<?xml version="1.0" standalone="no"?>
<!DOCTYPE svg PUBLIC "-//W3C//DTD SVG 1.1//EN" "http://www.w3.org/Graphics/SVG/1.1/DTD/svg11.dtd" >
<svg xmlns="http://www.w3.org/2000/svg">
<metadata>Generated by IcoMoon</metadata>
<defs>
<font id="icomoon" horiz-adv-x="1024">
<font-face units-per-em="1024" ascent="960" descent="-64" />
<missing-glyph horiz-adv-x="1024" />
<glyph unicode="&#x20;" horiz-adv-x="512" d="" />
<glyph unicode="&#xe900;" glyph-name="square" d="M860.16 960c90.485 0 163.84-73.354 163.84-163.84v-696.32c0-90.485-73.355-163.84-163.84-163.84l-704.76 0.201c-86.564 4.391-155.4 75.985-155.4 163.639v696.32c0 90.486 73.354 163.84 163.84 163.84h696.32zM163.84 99.84h696.32v696.32h-696.32v-696.32z" />
<glyph unicode="&#xe901;" glyph-name="resize" d="M685.704 576.662l274.939 273.252-0.895-154.891c-0.287-12.913 9.957-24.148 22.885-23.86l16.401 0.016c12.928 0.304 23.616 7.991 23.893 20.904l0.67 230.738c0 0.223-0.88 0.399-0.88 0.622l1.264 11.698c0.128 6.488-1.391 12.274-5.579 16.412-4.137 4.171-9.936 6.712-16.38 6.536l-11.68-0.272c-0.225 0-0.399-0.080-0.639-0.113l-229.221 1.007c-12.913-0.288-23.601-10.963-23.893-23.892l-0.031-16.398c1.964-15.23 13.936-24.132 26.849-23.844l151.073-0.4-273.968-272.305c-12.483-12.481-12.483-32.714 0-45.211 12.478-12.465 32.71-12.465 45.192 0zM339.292 319.337l-274.941-272.403 0.879 154.045c0.304 12.928-9.957 24.164-22.87 23.877l-17.403-0.031c-12.945-0.323-23.621-7.994-23.893-20.922l-0.671-230.739c0-0.225 0.879-0.364 0.879-0.619l-1.263-11.67c-0.144-6.484 1.374-12.305 5.577-16.411 4.123-4.188 9.94-6.715 16.365-6.556l11.698 0.292c0.223 0 0.383 0.092 0.639 0.092l230.225-1.003c12.913 0.317 23.589 10.995 23.892 23.908l0.032 16.411c-1.965 15.199-13.936 24.133-26.849 23.847l-151.070 0.399 273.951 272.27c12.481 12.483 12.481 32.715 0 45.198-12.481 12.478-32.699 12.493-45.18 0.015h0.001zM1023.612-26.821l-0.67 230.744c-0.287 12.928-10.98 20.599-23.893 20.917l-16.396 0.031c-12.928 0.292-23.156-10.959-22.885-23.872l0.895-154.894-274.96 273.231c-12.478 12.483-32.715 12.483-45.192 0-12.483-12.478-12.483-32.71 0-45.192l273.952-272.275-151.058-0.399c-12.913 0.287-24.885-8.648-26.849-23.841l0.031-16.416c0.307-12.928 10.995-23.601 23.893-23.908l229.236 1.008c0.241 0 0.415-0.097 0.639-0.097l11.685-0.287c6.438-0.159 12.254 2.368 16.38 6.551 4.188 4.127 5.686 9.926 5.574 16.416l-1.259 11.665c0 0.256 0.875 0.399 0.875 0.624v-0.005zM110.521 894.154l151.087 0.397c12.913-0.288 24.883 8.63 26.849 23.845l-0.032 16.412c-0.321 12.928-10.998 23.62-23.893 23.892l-230.242-0.991c-0.256 0.032-0.416 0.112-0.639 0.112l-11.698 0.273c-6.423 0.175-12.257-2.366-16.365-6.536-4.203-4.139-5.72-9.924-5.577-16.413l1.263-11.698c0-0.223-0.879-0.384-0.879-0.623l0.671-230.738c0.288-12.913 10.964-20.6 23.893-20.904l17.404-0.015c12.913-0.288 23.156 10.947 22.868 23.86l-0.879 154.044 274.942-272.401c12.465-12.482 32.715-12.482 45.197 0s12.481 32.73 0 45.211l-273.968 272.274z" />
<glyph unicode="&#xe902;" glyph-name="doc" horiz-adv-x="860" d="M433.16 253.28c15.487-1.577 27.562-14.66 27.562-30.56s-12.075-28.983-27.562-30.56l-3.158-0.16h-135.162c-16.966 0-30.72 13.754-30.72 30.72s13.754 30.72 30.72 30.72h135.162l3.158-0.16zM568.32 433.521c15.487-1.573 27.554-14.664 27.562-30.56 0-15.905-12.075-28.983-27.562-30.56l-3.158-0.16h-270.322c-16.966 0-30.72 13.754-30.72 30.72 0.009 16.957 13.759 30.72 30.72 30.72l273.48-0.16zM512.082 928.72c27.255-2.672 52.929-14.569 72.679-33.88l200.040-195.64 8.2-8.84c7.713-9.218 14.037-19.559 18.719-30.68 6.242-14.834 9.437-30.786 9.441-46.88v-525.24c0-32.043-12.71-62.779-35.361-85.438-22.659-22.659-53.4-35.398-85.443-35.402h-540.678c-32.047 0-62.78 12.739-85.44 35.402-22.66 22.659-35.4 53.391-35.4 85.438v720.88c0 32.047 12.74 62.78 35.4 85.44s53.393 35.4 85.44 35.4h340.601l11.801-0.56zM159.68 867.84c-15.752 0-30.862-6.262-42-17.4s-17.4-26.248-17.4-42v-720.88c0-15.753 6.262-30.863 17.4-42s26.248-17.4 42-17.4h540.678c15.749 0.004 30.867 6.267 42 17.4 11.133 11.137 17.363 26.255 17.363 42v509.96h-149.484c-32.039 0-62.779 12.707-85.438 35.36-22.655 22.657-35.394 53.399-35.398 85.44v149.52h-329.722zM550.842 718.32c0.004-15.746 6.263-30.866 17.4-42 11.137-11.131 26.251-17.36 41.996-17.36h127.84l-187.236 183.12v-123.76z" />
<glyph unicode="&#xe903;" glyph-name="no-doc" horiz-adv-x="1385" d="M483.886 665.351c41.888 0 75.876-32.379 75.883-72.294v-36.177c-0.013-39.909-33.999-72.235-75.883-72.235h-75.823c-41.884 0-75.869 32.326-75.883 72.235v36.177c0.007 39.915 33.994 72.294 75.883 72.294h75.823zM408.063 556.88h75.823v36.177h-75.823v-36.177zM1262.299 906.057c20.372 14.396 48.538 9.549 62.94-10.823 14.39-20.374 9.547-48.542-10.824-62.942l-120.585-85.235c6.764-13.875 10.644-29.28 10.644-45.588v-505.999c-0.012-59.874-50.935-108.411-113.76-108.411h-796.415c-10.027 0-19.737 1.385-29 3.704l-142.588-100.822-3.882-2.47c-19.934-11.258-45.557-5.801-59.059 13.294-13.501 19.101-10.089 45.074 7.176 60.115l3.647 2.885 120.882 85.468c-6.969 14.035-10.996 29.678-11 46.237v505.999c0 59.881 50.986 108.411 113.824 108.411h796.415c10.366 0 20.396-1.406 29.937-3.882l141.649 100.059zM745.883 430.41h269.005c20.926-0.008 37.864-16.173 37.882-36.118 0-19.955-16.944-36.168-37.882-36.177h-371.296l-76.647-54.174h220.35c20.95 0 37.942-16.221 37.942-36.177-0.006-19.956-16.998-36.117-37.942-36.117h-322.644l-102.294-72.294h728.356c20.932 0 37.924 16.167 37.936 36.117v505.528l-382.765-270.588zM294.298 737.586c-20.946 0-37.941-16.158-37.941-36.118v-506.354l80 56.531c-2.568 4.867-4.175 10.294-4.177 16.119 0 19.956 16.999 36.171 37.941 36.177h40.294l76.647 54.174h-116.941c-20.942 0.004-37.941 16.219-37.941 36.177 0.013 19.947 17.007 36.113 37.941 36.118h219.235l434.591 307.177h-729.65z" />
<glyph unicode="&#xe904;" glyph-name="copy" horiz-adv-x="973" d="M857.301 947.2c27.991-0.007 54.364-11.796 73.452-32 19.016-20.136 29.343-47.015 29.348-74.6v-591.2l-0.502-10.301c-2.243-23.885-12.216-46.638-28.846-64.251-16.707-17.684-38.984-28.964-63.053-31.498l-10.399-0.548h-80.451v-87.404l-0.502-10.296c-2.243-23.89-12.216-46.638-28.846-64.251-16.707-17.69-38.984-28.964-63.053-31.503l-10.399-0.548h-558.301c-28.004 0-54.407 11.832-73.5 32.051-19.017 20.142-29.35 47.012-29.35 74.598v591.151c0.006 27.572 10.348 54.416 29.35 74.55 19.075 20.208 45.415 32.027 73.4 32.050h80.5v87.4c0.009 27.582 10.333 54.467 29.35 74.6 19.092 20.208 45.502 32 73.5 32h558.301zM115.7 676.4c-6.161-0.009-12.536-2.591-17.6-7.95-5.135-5.442-8.394-13.267-8.4-21.85v-591.151c0-8.596 3.256-16.451 8.4-21.898 5.071-5.361 11.483-7.951 17.65-7.951l562.95 0.502c4.623 0.978 9.155 3.436 12.948 7.45 5.135 5.437 8.392 13.271 8.402 21.847v591.202l-0.599 6.25c-1.157 6.087-3.942 11.514-7.803 15.6-3.794 4.016-8.32 6.471-12.948 7.45l-4.649 0.5h-558.351zM299 870.4c-6.171 0-12.577-2.581-17.65-7.95-5.141-5.442-8.394-13.261-8.4-21.85v-87.4h401.101l10.399-0.55c24.064-2.536 46.346-13.771 63.053-31.45 19.011-20.124 29.327-46.979 29.348-74.55v-427.048h80.451l4.649 0.497c4.623 0.978 9.155 3.441 12.948 7.45 5.135 5.437 8.392 13.271 8.402 21.852v591.2c-0.005 8.586-3.261 16.408-8.402 21.85-5.064 5.359-11.438 7.943-17.597 7.95h-558.301z" />
<glyph unicode="&#xe905;" glyph-name="replace" horiz-adv-x="1152" d="M112.26 48.563h346.49v-108.749h-455.745l-0.445 857.060c0 89.937 73.492 163.126 163.8 163.126h176.685l218.401-108.751h423.917c90.304 0 163.795-73.19 163.795-163.126l0.282-468.667-109.427 113.932v354.735c0 29.961-24.461 54.375-54.598 54.375h-449.685l-218.4 108.751h-150.915c-30.14 0-54.6-24.415-54.6-54.376l0.446-748.311zM839.629 239.738l58.822-57.837h-404.371v-107.386h409.184l-63.648-62.579 77.235-75.936 154.483 151.866c21.331 20.973 21.331 54.97 0 75.936l-154.47 151.872-77.235-75.936z" />
<glyph unicode="&#xe906;" glyph-name="download" horiz-adv-x="967" d="M483.501 206.25l-302.189 302.189 84.613 87.635 157.139-157.139v492.568h120.876v-492.568l157.139 157.139 84.613-87.635-302.189-302.189zM120.874-35.502c-33.241 0-61.687 11.826-85.339 35.478s-35.497 52.116-35.537 85.398v181.313h120.876v-181.313h725.253v181.313h120.876v-181.313c0-33.242-11.826-61.706-35.478-85.398s-52.116-35.517-85.398-35.478h-725.253z" />
<glyph unicode="&#xe907;" glyph-name="close" horiz-adv-x="1265" d="M1210.531 854.178l-485.882-419.588 454.764-392.765-78.764-91.178-468.179 404.355-468.117-404.355-78.765 91.178 454.706 392.765-485.824 419.588 78.706 91.176 499.294-431.176 499.296 431.176 78.764-91.176z" />
<glyph unicode="&#xe908;" glyph-name="right-tiny" horiz-adv-x="630" d="M7.798 806.131l372.526-358.132-372.526-358.132 160.021-153.866 399.146 383.799c17.511 16.834 31.403 36.82 40.881 58.817s14.355 45.573 14.355 69.383c0 23.81-4.878 47.386-14.355 69.383s-23.369 41.983-40.881 58.816l-399.146 383.802-160.021-153.869z" />
<glyph unicode="&#xe909;" glyph-name="close2" d="M951.168 947.504c16.661 16.662 43.669 16.662 60.335 0 16.661-16.662 16.661-43.671 0-60.334l-439.17-439.167 442.084-442.421c13.67-16.755 12.706-41.459-2.914-57.084-15.625-15.62-40.329-16.585-57.084-2.914l-3.251 2.914-439.17 439.17-439.167-439.17c-16.663-16.661-43.671-16.661-60.334 0-16.662 16.666-16.662 43.674 0 60.335l439.17 439.17-442.087 442.418c-13.668 16.758-12.704 41.462 2.917 57.083s40.325 16.585 57.083 2.917l3.25-2.917 439.167-439.17 439.17 439.17z" />
<glyph unicode="&#xe90a;" glyph-name="out" horiz-adv-x="931" d="M442.6 945.931c14.102-0.016 27.665-5.415 37.92-15.096 10.25-9.68 16.425-22.911 17.251-36.987s-3.757-27.938-12.805-38.752c-9.053-10.813-21.891-17.763-35.894-19.429l-6.473-0.387h-276.628c-13.551-0.002-26.63-4.977-36.756-13.982s-16.596-21.413-18.181-34.871l-0.387-6.473v-663.905c0.002-13.551 4.977-26.633 13.982-36.76 9.004-10.123 21.413-16.594 34.871-18.18l6.473-0.385h248.965c14.102-0.019 27.665-5.418 37.918-15.096 10.253-9.682 16.424-22.91 17.249-36.986s-3.753-27.943-12.804-38.757c-9.051-10.813-21.889-17.763-35.892-19.425l-6.473-0.389h-248.965c-42.336 0-83.072 16.176-113.874 45.217-30.802 29.046-49.342 68.76-51.826 111.025l-0.276 9.739v663.905c-0.002 42.336 16.173 83.072 45.217 113.874s68.76 49.342 111.023 51.826l9.738 0.276h276.628zM758.342 643.632l156.463-156.516c10.372-10.375 16.199-24.447 16.199-39.116s-5.827-28.74-16.199-39.113l-156.463-156.519c-10.381-10.372-24.459-16.199-39.132-16.195-14.678 0.009-28.751 5.841-39.123 16.222-10.377 10.381-16.199 24.459-16.195 39.137 0.005 14.673 5.841 28.751 16.222 39.123l62.018 62.018h-299.533c-14.673 0-28.746 5.832-39.121 16.204-10.375 10.377-16.204 24.449-16.204 39.123s5.829 28.747 16.204 39.122c10.375 10.375 24.447 16.204 39.121 16.204h299.533l-62.018 62.021c-10.381 10.373-16.218 24.447-16.222 39.123s5.818 28.754 16.195 39.135c10.372 10.381 24.445 16.216 39.123 16.221 14.673 0.005 28.751-5.82 39.132-16.194z" />
<glyph unicode="&#xe90b;" glyph-name="edit" d="M925.809 484.785c-2.748-13.853-0.654-315.996-0.705-339.428-0.125-63.817 5.604-103.553-35.629-134.187-20.224-15.030-36.761-17.215-66.826-17.277l-595.361-0.023c-58.856 0.006-108.18-9.062-142.996 25.947-34.981 35.173-26.136 85.536-26.096 144.557l0.018 592.967c0.075 30.622 0.998 46.177 16.542 67.647 30.078 41.544 76.355 34.966 135.222 35.073 112.477 0.203 226.474-2.049 339.468 0.034l-0.511 57.357c-61.53 2.866-129.583 0.133-191.846 0.176-64.033 0.044-128.078 0.149-192.108 0.004-55.011-0.125-100.307-9.963-135.147-56.39-36.347-48.433-29.262-91.862-29.298-160.95l0.045-575.682c-0.348-71.861 4.148-107.37 43.726-146.492 41.622-41.141 77.11-41.829 150.097-41.784 64.029 0.040 128.082-0.256 192.107-0.011 127.472 0.495 255.018-0.603 382.487-0.051 72.39 0.319 110.397-6.366 159.673 32.295 16.031 12.578 31.322 31.891 41.295 53.81 12.572 27.636 12.766 47.951 12.828 81.491 0.051 25.39 1.929 364.65-0.535 381.030l-56.45-0.113zM458.865 395.851c4.733 24.496 12.652 53.125 19.374 78.004 3.726 13.793 4.077 26.759 12.957 35.448l218.122 217.775c12.151 12.27 90.713 92.824 98.046 96.384l79.66-79.959c-3.584-7.621-83.619-85.061-96.277-97.759l-193.816-193.633c-32.244-32.292-22.010-27.929-59.67-37.157-24.421-5.982-54.412-15.665-78.396-19.103l0.001-0.001zM848.499 864.517c2.731 6.561 13.852 15.526 19.154 20.771 6.775 6.697 12.919 11.019 23.825 14.275 24.383 7.279 46.17-2.092 58.725-14.855 39.616-40.282-3.618-92.041-22.124-99.869l-79.58 79.678zM1022.467 826.485c15.041 93.741-83.545 163.936-167.711 120.165-20.315-10.566-30.554-23.071-43.633-36.021l-356.473-356.171c-20.869-20.771-19.162-14.898-28.609-51.006-5.441-20.791-10.833-42.124-15.558-62.666-5.321-23.128-24.607-80.709-18.29-96.166 3.257-7.982 11.918-16.282 22.056-17.402 13.762-1.525 107.806 24.405 127.749 29.382 17.991 4.494 48.531 8.522 60.319 19.228 13.727 12.47 26.612 26.456 39.833 39.73l316.694 316.394c23.233 23.167 56.023 47.172 63.624 94.534v-0.001z" />
<glyph unicode="&#xe90c;" glyph-name="userdoc" horiz-adv-x="1084" d="M-0.001 813.955v-731.906c0-71.962 71.35-145.953 144.683-145.953h194.351c40.211 0 47.406 55.268 11.561 67.294-11.237 3.77-140.204 1.391-158.399 1.391-43.841 0-62.197-1.656-88.599 17.104-18.062 12.834-34.486 40.031-34.486 70.896v710.44c0 48.572 37.63 88 86.376 88h701.81c26.932 0 51.437-13.78 63.615-29.068 8.106-10.172 11.75-15.474 16.616-28.556 7.703-20.71 6.98-71.843 6.221-96.984-0.518-17.091-9.039-51.931 10.075-69.256 18.874-17.107 58.953-10.244 58.953 30.694 0 80.396 11.437 159.621-42.614 213.055-25.83 25.535-61.218 48.798-102.062 48.798h-723.408c-33.248 0-78.781-21.899-99.638-44.772l-16.588-19.998c-14.474-21.292-28.453-52.848-28.453-81.183l-0.013 0.004zM790.332 279.493c-146.911 0-184.569 189.368-61.958 250.46 113.161 56.38 232.507-63.686 182.196-170.358-13.688-29.032-35.707-54.772-65.578-67.888-14.797-6.492-34.268-12.214-54.654-12.214h-0.006zM591.666 412.565c0-108.416 79.036-153.161 86.378-163.123-31.419-7.275-88.684-54.19-109.231-80.315-40.594-51.6-67.729-111.384-76.023-177.908-3.949-31.678 32.705-48.173 54.223-25.788 17.658 18.369 1.318 75.419 66.206 159.563 2.914 3.788 3.776 4.396 6.998 8.064 22.205 25.288 31.889 32.232 63.356 50.787 64.855 38.248 150.59 40.807 215.596-2.223 6.998-4.631 11.148-7.366 17.676-12.485l17.652-14.646c90.565-83.289 79.887-173.036 93.847-190.043 18.765-22.855 55.659-8.347 55.659 16.694 0 26.131-12.467 70.968-20.337 91.396-17.525 45.506-44.596 85.657-78.441 119.497l-47.625 38.513c-22.078 14.592-15.821 9.822-37.146 21.036 2.896 3.926 20.868 16.592 31.883 28.42 92.739 99.563 52.039 255.789-57.791 306.417-54.358 25.049-115.226 26.556-169.898 1.448-22.205-10.202-40.080-24.526-56.309-40.616-33.328-33.042-56.685-83.362-56.685-134.684l0.017-0.004zM146.863 635.88c0-19.354 16.912-36.486 36.708-36.486h293.681c20.639 0 36.709 19.039 36.709 34.34 0 15.437-14.55 34.344-30.233 34.344h-306.64c-17.679 0-30.233-22.451-30.233-32.197h0.008zM146.855 416.95c0-19.625 16.083-36.486 41.028-36.486h213.784c47.663 0 53.852 70.83-4.32 70.83h-211.624c-22.874 0-38.868-20.312-38.868-34.344z" />
<glyph unicode="&#xe90d;" glyph-name="bell-new" d="M725.312 810.667c0 82.347 66.987 149.333 149.333 149.333s149.333-66.987 149.333-149.333c0-82.347-66.987-149.333-149.333-149.333s-149.333 66.987-149.333 149.333zM932.672 526.635c-8.064 34.432-42.496 55.936-76.928 47.659-34.432-8.064-55.765-42.539-47.659-76.928l42.795-181.888c5.461-19.584 1.664-39.253-10.752-55.509-12.459-16.341-30.805-25.344-51.541-25.344h-553.257c-19.797 0-38.229 8.747-50.56 24.021-12.245 15.104-16.811 34.645-13.269 50.901l84.608 314.368c27.392 122.453 134.784 208 261.204 208 15.787 0 31.701-1.408 47.36-4.224 34.645-6.229 68.053 16.896 74.24 51.755 6.229 34.773-16.939 68.053-51.755 74.24-23.040 4.139-46.549 6.229-69.845 6.229-186.75 0.085-345.513-126.635-385.406-305.323l-84.608-314.325c-12.8-57.216 0.981-116.224 37.845-161.92 36.736-45.525 91.477-71.68 150.187-71.68h59.733c24.021-97.835 111.659-170.667 216.916-170.667 105.259 0 192.896 72.832 216.917 170.667h59.733c60.672 0 116.523 27.563 153.259 75.605 36.864 48.171 48.64 109.312 32.939 165.077l-42.112 179.243-0.043 0.043zM1024 810.667c0-82.475-66.859-149.333-149.333-149.333s-149.333 66.859-149.333 149.333c0 82.475 66.859 149.333 149.333 149.333s149.333-66.859 149.333-149.333z" />
<glyph unicode="&#xe90e;" glyph-name="eye" d="M521.316 642.739c107.897 0 195.368-87.47 195.368-195.368 0-107.902-87.471-195.367-195.368-195.367-107.895 0.005-195.368 87.471-195.368 195.367s87.474 195.363 195.368 195.368zM521.316 583.476c-75.152-0.005-136.105-60.951-136.105-136.105s60.953-136.099 136.105-136.105c75.156 0 136.105 60.95 136.105 136.105 0 75.157-60.95 136.105-136.105 136.105zM526.158 744.897l14.63-0.632c149.941-8.908 259.212-85.192 330.687-158.895 36.891-38.048 64.054-75.774 82.049-104 1.25-1.96 2.447-3.899 3.579-5.789 0.668-1.104 1.299-2.205 1.951-3.263 5.632-9.169 10.946-21.684 10.946-21.684-0.038-0.115-5.724-16.307-13.42-28.737-0.598-0.961-1.191-1.947-1.789-2.95-0.846-1.417-1.714-2.867-2.63-4.312-18.001-28.23-45.207-65.951-82.109-104.001-71.475-73.696-180.709-149.989-330.633-158.898l-14.629-0.631c-162.088-4.77-283.309 74.315-362.842 152.474-39.816 39.133-68.35 79.171-88.263 108.738-1.913 2.84-2.238 3.007-3.948 5.686l-15.737 28.945c0 0 7.2 17.824 13.684 28.211 0.787 1.261 1.359 2.125 2.052 3.211 1.261 1.973 2.568 4.004 3.948 6.052 19.912 29.567 49.817 68.87 89.631 108 79.533 78.161 200.753 157.242 362.842 152.474zM524.579 691.002c-142.254 4.185-250.052-64.847-323.474-137-36.639-36.009-64.315-72.329-82.737-99.684-1.093-1.623-2.15-3.219-3.158-4.79l-1.631-2.579c0.462-0.703 0.903-1.433 1.368-2.158 0.659-1.028 1.351-2.064 2.053-3.105 18.422-27.358 46.099-63.677 82.737-99.684 73.422-72.149 181.224-141.183 323.474-137l25.58 1.477c125.887 11.232 219.163 76.234 282.629 141.684 33.792 34.848 58.794 69.503 75.318 95.419 0.668 1.054 1.326 2.11 1.946 3.158 0.485 0.817 0.938 1.642 1.423 2.421-0.302 0.478-0.598 0.977-0.895 1.474-0.361 0.597-0.728 1.198-1.105 1.789-16.524 25.918-41.526 60.571-75.318 95.421-63.466 65.448-156.742 130.452-282.629 141.684l-25.581 1.473z" />
<glyph unicode="&#xe90f;" glyph-name="compare" horiz-adv-x="805" d="M315.812-39.62v88.66h-216.719c-23.839 0-44.24 8.675-61.202 26.021s-25.457 38.228-25.486 62.636v620.607c0 24.381 8.495 45.245 25.486 62.593s37.391 26.036 61.202 26.066h216.719v88.658h86.689v-975.24h-86.689zM99.092 182.024h216.719v265.977l-216.719-265.977zM489.186 49.040v398.961l216.722-265.977v576.279h-216.722v88.658h216.722c23.837 0 44.251-8.689 61.243-26.066s25.472-38.241 25.443-62.593v-620.607c0-24.379-8.481-45.257-25.443-62.636s-37.376-26.050-61.243-26.021h-216.722z" />
<glyph unicode="&#xe910;" horiz-adv-x="1044" d="M1034.24 319.539c-0.055-50.483-20.144-98.882-55.841-134.58-35.695-35.693-84.081-55.781-134.56-55.839h-93.559v-102.22h-649.121v649.12h102.2v93.58c0.058 50.479 20.146 98.866 55.841 134.56 35.697 35.697 84.097 55.785 134.578 55.84h450.060c50.479-0.058 98.865-20.145 134.56-55.84s55.783-84.081 55.841-134.56v-450.061z" />
<glyph unicode="&#xe911;" glyph-name="trash" horiz-adv-x="829" d="M380.77 609.832c4.083 10.807 5.195 11.959 15.615 16.193 6.853 8.981 42.545 9.67 53.779-18.454 6.093-15.245 3.653-60.871 3.653-81.211v-426.553c0-27.726 4.067-54.492-12.175-70.145-18.576-17.9-43.709-14.36-58.059 3.628-13.398 16.794-8.842 50.216-8.842 75.787l0.622 488.16c0.93 6.589 1.722 10.448 5.412 12.582l-0.005 0.011zM598.114 628.617c27.253 11.413 49.841-8.353 52.835-33.048 1.741-14.336-27.78-379.714-30.832-426.205-1.872-28.613-4.389-57.408-6.368-85.866-2.024-29.125-3.462-54.497-26.746-63.123-26.946-9.982-51.381 9.591-54.19 33.28-1.946 16.389 4.184 66.819 5.769 86.383l31.607 425.961c2.292 32.012-1.219 50.406 27.931 62.607l-0.005 0.011zM282.389 248.183c0-49.709 8.278-106.96 11.127-157.669 1.675-29.808 5.583-51.962-14.764-65.63-21.267-14.282-45.464-4.623-56.289 12.707-10.692 17.115-20.894 262.332-27.264 307.955-2.525 61.475-10.192 123.93-13.595 185.483-1.531 27.7-10.915 66.28 4.839 85.572 19.411 23.769 51.339 18.796 64.428-4.951 11.255-20.422 25.924-313.335 31.517-363.468zM111.632 372.845c5.779-8.382 14.86-127.719 15.875-136.745 5.115-45.418 9.352-91.161 13.882-136.409 3.748-37.478 4.78-101.84 22.399-127.578 26.429-38.601 57.304-36.074 109.657-36.074 97.615 0 195.226 0 292.841 0 39.679 0 78.454-2.989 102.967 42.887 14.56 27.243 12.722 118.020 20.846 129.645-3.121 22.45 9.879 110.866 12.503 139.719 2.121 23.347 4.852 46.179 6.934 69.389 1.897 21.255 6.31 46.115 6.529 67.278 0.941 6.363 1.253 10.162 1.804 16.428 0.268 2.994 0.375 5.866 1 8.831 1.697 8.021-0.434 2.423 2.531 6.671-4.091 29.472 26.546 238.201 28.194 297.103l-670.625 0.149c1.419-51.112 35.989-317.518 32.66-341.294zM589.742 937.232c-7.007 4.157-6.632 4.995-9.518 12.306-4.969 1.522 0.883-0.755-5.637 2.735-15.584 8.342-19.461 7.168-39.596 7.096-40.703-0.143-254.835 2.233-268.611-1.411-35.877-9.489-27.274-40.697-29.869-80.345-45.326-4.333-110.114-0.479-157.556-0.479-76.438 0-78.937-2.592-78.937-81.861h828.963c-2.102 29.569 5.744 52.986-12.956 71.247-15.653 15.289-44.408 10.614-68.682 10.614-46.783 0-110.617-3.799-155.318 0.479 0 17.39-2.945 46.999-2.282 59.619z" />
<glyph unicode="&#xe912;" glyph-name="write" horiz-adv-x="1161" d="M773.92 191.986l-257.894-255.986h644.739v255.986h-386.847zM584.368 755.799l-584.134-579.807v-239.991h241.778l584.132 579.81-241.775 239.988zM188.497 63.993h-59.316v58.88l455.187 453.095 60.605-60.157-456.476-451.818zM1013.119 701.402c25.149 24.959 25.149 66.557 0 90.236l-150.869 149.753c-12.076 11.919-28.419 18.61-45.452 18.61s-33.376-6.69-45.452-18.61l-117.991-117.114 241.779-239.988 117.985 117.114z" />
<glyph unicode="&#xe913;" glyph-name="plus" horiz-adv-x="1081" d="M642.9 857.6c0 56.554-45.847 102.4-102.4 102.4s-102.4-45.846-102.4-102.4v-307.2h-307.2c-56.554 0-102.4-45.846-102.4-102.4s45.846-102.4 102.4-102.4h307.2v-307.2c0-56.553 45.846-102.4 102.4-102.4s102.4 45.847 102.4 102.4v307.2h307.2c56.553 0 102.4 45.846 102.4 102.4s-45.847 102.4-102.4 102.4h-307.2v307.2z" />
<glyph unicode="&#xe914;" glyph-name="down-fill" horiz-adv-x="2194" d="M1097-63.939l1097.011 1023.877h-2194.022l1097.011-1023.877z" />
<glyph unicode="&#xe915;" glyph-name="logo" horiz-adv-x="1482" d="M452.666 506.629l-21.426 39.247c0 0-51.161-120.143-177.245-111.832-126.114 8.342-206.726 113-216.522 242.687-9.765 129.717 91.608 261.741 218.893 264.112 127.283 2.37 189.157-114.202 189.157-114.202l26.165 21.425c0 0-71.352 107.061-220.063 111.832-148.709 4.74-266.482-154.65-249.828-300.99s114.202-237.126 255.769-239.307c141.569-2.179 195.099 87.027 195.099 87.027zM486.415 795.264h-46.388l11.912-71.383c0 0-36.118-27.968-53.973-66.045-17.852-38.079-48.38-126.686-48.38-126.686h38.079c0 0 22.593 121.345 67.814 164.162 13.082-49.96 20.382-104.407 16.653-164.162h38.077c0 0-26.165 136.797-29.735 227.236-2.37 35.677 5.942 36.878 5.942 36.878zM632.818 538.326c68.888 0 124.757 59.060 124.757 131.896 0 72.838-55.869 131.899-124.757 131.899-68.89 0-124.757-59.060-124.757-131.899 0-72.836 55.867-131.896 124.757-131.896zM632.818 788.85c50.369 0 91.229-53.12 91.229-118.627s-40.827-118.625-91.229-118.625c-50.402 0-91.229 53.119-91.229 118.625s40.827 118.627 91.229 118.627zM1024.877 538.326c68.89 0 124.757 59.060 124.757 131.896 0 72.838-55.867 131.899-124.757 131.899-68.888 0-124.757-59.060-124.757-131.899 0-72.836 55.869-131.896 124.757-131.896zM1024.877 788.85c50.371 0 91.229-53.12 91.229-118.627s-40.827-118.625-91.229-118.625c-50.402 0-91.229 53.119-91.229 118.625s40.827 118.627 91.229 118.627zM920.881 194.897l118.976 4.77c0 0-7.142 19.023-7.142 39.247s3.57 89.239-72.553 92.778c-2.37 77.325 0 107.062 0 107.062h57.102c0 0-19.025-28.565-13.082-47.59 16.653 17.854 35.676 28.567 35.676 28.567v35.676l-118.976-3.57v-256.938zM961.329 300.756c58.745 0.252 46.388-91.609 46.388-91.609h-46.388v91.609zM1174.499 412.968c-7.962 60.893-103.742 70.405-95.4-34.887 0 0 3.57-160.592-8.343-183.216h44.019c0 0-15.451 137.396-8.343 177.844 37.794-10.934 72.206 8.374 68.035 40.227l0.031 0.031zM1106.622 424.186c0 0 41.112 28.567 46.705-2.084 6.098-33.402-46.705-32.422-46.705-32.422v34.505zM1272.649 458.22c-27.366-4.582-40.448-2.781-51.761-2.781v-12.482l11.408-2.37c0 0 9.985-8.342 5.845-36.276 0 0-70.055-92.431-89.237-140.967-17.854-45.221 5.341-68.414 26.165-66.013 20.824 2.37 80.294 50.559 80.294 50.559l-4.171-51.285 45.252 2.401c0 0-24.428 216.839-23.826 259.277l0.031-0.062zM1173.33 235.345c-5.94 31.536 75.555 131.456 75.555 131.456l7.142-95.78c0 0-77.104-65.316-82.664-35.676h-0.033zM1385.935 385.223l54.037 68.857c2.781 3.538 0.411 8.784-4.109 9.005l-121.912 6.004 2.969-56.121h11.313c0 0 0.601-2.781-1.2 33.937 7.14 0.411 83.866-3.981 83.866-3.981s-43.419-48.791-48.19-53.247c-4.772-4.487-12.482-22.877 7.142-25.28 58.3-6.54 85.034-53.276 84.465-87.436-0.599-35.676-12.387-84.498-56.469-82.129-44.081 2.372-44.65 71.416-44.65 71.416s-42.219-2.969-33.908-5.94c-1.2-58.903 39.911-81.622 78.558-80.421s80.263 22.751 83.835 103.647-95.78 101.72-95.78 101.72l0.031-0.031zM638.313-6.743c-79.41-82.098-186.124-8.279-178.192 52.203 6.257 47.59 87.215 121.881 30.052 143.937-36.877 14.222-70.436-32.010-70.436-32.010s-1.675 13.146 18.738 32.105c24.523 22.752 98.118 54.447 107.946 95.497 9.828 41.017-15.516 86.426-15.516 86.426-24.078-24.080-76.976-13.399-135.153-66.677-55.267-50.623-47.115-107.314-45.409-147.191 0.031-0.159 0.031-0.254 0.031-0.254 10.301-69.235 46.483-131.014 100.583-170.448 133.857-97.581 187.356-3.888 187.356 6.383v0.031zM441.161 25.805c0 0-69.834 85.636-57.984 173.548 6.098 45.219 20.065 82.886 55.931 109.114 19.339 14.156 49.453 16.116 79.253 31.853 8.47-31.222 12.544-53.057-1.328-73.282-27.018-39.373-131.772-54.383-102.606-148.426 1.739 28.884 40.67 73.186 67.467 58.017 39.216-22.182-57.102-90.123-40.701-150.826h-0.033zM611.768 423.298c16.401 16.054 4.613 33.466-21.742 36.499-84.655 8.184-202.555-86.521-232.322-190.232 2.56 5.467 64.148 140.208 184.48 166.563 18.74 5.341 43.672 6.985 42.597-8.374-0.883-12.923 19.308-11.976 26.987-4.456zM479.492 259.371c18.235 18.233 25.691 40.384 16.622 49.422-9.069 9.069-31.189 1.611-49.422-16.622s-25.691-40.384-16.622-49.422c9.069-9.069 31.189-1.611 49.422 16.622zM445.27 156.185c-9.321-10.617-11.534-23.921-4.96-29.704 6.571-5.783 19.496-1.865 28.818 8.753 9.323 10.617 11.536 23.921 4.962 29.704s-19.498 1.865-28.82-8.753zM603.239-63.878c16.653-0.599 38.077 1.201 38.077 1.201s52.931 21.709 52.931 88.481c0 0-26.165-81.339-91.008-89.682zM517.001-8.546c75.841-34.348 117.205 29.229 151.996 109.526 21.109 48.694 47.274 93.915 135.912 138.534-163.563-30.336-138.346-152.091-215.070-225.844-38.236-36.751-72.838-22.184-72.838-22.184v-0.031zM875.344 209.401c-0.062 1.706-0.157 3.413-0.283 5.088-0.095 1.137-0.159 2.275-0.254 3.411-0.442 5.562-1.073 11.060-1.863 16.527-0.254 1.77-0.537 3.539-0.823 5.277-0.283 1.801-0.599 3.603-0.947 5.405-0.159 0.852-0.316 1.706-0.473 2.56-0.254 1.169-0.475 2.337-0.727 3.506-0.157 0.916-0.378 1.865-0.599 2.781-0.347 1.675-0.759 3.349-1.17 5.024-0.409 1.832-0.885 3.633-1.359 5.434-0.221 0.854-0.473 1.708-0.694 2.56-0.285 1.044-0.568 2.117-0.885 3.161-0.316 1.073-0.632 2.148-0.98 3.221-0.409 1.454-0.885 2.907-1.359 4.361-0.632 2.055-1.328 4.109-2.053 6.131-0.568 1.675-1.17 3.38-1.801 5.024-0.57 1.518-1.139 3.002-1.739 4.487-0.759 1.991-1.58 3.952-2.401 5.878 0 0.062-0.033 0.126-0.064 0.19-0.821 1.958-1.675 3.886-2.56 5.781-0.663 1.549-1.39 3.066-2.117 4.582-0.316 0.696-0.663 1.392-1.011 2.117-0.694 1.454-1.423 2.876-2.148 4.299-0.126 0.316-0.316 0.663-0.506 1.011-0.694 1.359-1.39 2.686-2.148 4.045-0.252 0.568-0.568 1.137-0.885 1.706-0.947 1.675-1.863 3.349-2.843 5.024-0.885 1.58-1.801 3.128-2.719 4.677-0.314 0.504-0.63 1.042-0.947 1.549-0.759 1.201-1.485 2.37-2.244 3.57-0.347 0.599-0.727 1.169-1.137 1.77-0.98 1.547-2.022 3.095-3.066 4.644-1.106 1.644-2.244 3.318-3.411 4.929-0.095 0.159-0.221 0.316-0.347 0.473-1.106 1.582-2.244 3.128-3.413 4.677-0.095 0.159-0.19 0.316-0.316 0.442-1.2 1.644-2.465 3.254-3.729 4.867-1.297 1.675-2.622 3.316-3.983 4.929-0.79 1.011-1.611 1.991-2.465 2.969-1.011 1.201-2.053 2.403-3.128 3.603-1.2 1.359-2.401 2.717-3.633 4.045-2.75 3.002-5.531 5.909-8.438 8.753-0.821 0.854-1.642 1.675-2.496 2.465-1.201 1.17-2.403 2.308-3.602 3.413-1.328 1.264-2.686 2.496-4.045 3.698-1.549 1.39-3.161 2.781-4.741 4.14-1.611 1.39-3.223 2.717-4.865 4.045-1.613 1.328-3.287 2.655-4.929 3.919-1.644 1.264-3.287 2.496-4.931 3.729-0.031 0.033-0.093 0.064-0.126 0.095 1.454 1.044 2.812 2.277 4.014 3.666 10.427 11.945 6.985 32.043-7.71 44.84-14.693 12.799-35.044 13.494-45.473 1.518l-38.771-3.475c-1.075-0.095-1.17-1.613-0.128-1.865 10.617-2.529 32.043-8.248 33.023-13.589 0.157-2.337 0.568-4.708 1.295-7.078 1.991-6.826 6.195-13.461 12.356-18.833 8.501-7.427 18.928-10.776 28.218-9.954 18.202-16.779 34.824-37.953 48.254-62.663 21.204-38.994 30.685-79.916 29.041-115.497-30.526-18.202-62.504-54.321-78.936-98.656-16.211-43.703-17.507-98.906-14.821-139.956-33.749-15.61-51.539-23.099-66.708-48.568 31.886 7.394 61.527 20.572 87.817 38.331 2.686 1.801 5.308 3.666 7.9 5.562 1.454 1.073 2.874 2.115 4.266 3.221 0.442 0.285 0.852 0.632 1.264 0.98 1.896 1.423 3.793 2.938 5.657 4.456 1.642 1.359 3.285 2.717 4.929 4.14 0.916 0.759 1.801 1.518 2.686 2.339 1.39 1.201 2.748 2.434 4.076 3.666 0.316 0.252 0.601 0.537 0.918 0.852 1.264 1.139 2.527 2.339 3.76 3.539 0.916 0.885 1.834 1.77 2.717 2.686 1.518 1.454 2.971 2.938 4.394 4.456 1.516 1.549 3.002 3.128 4.456 4.708 0.599 0.663 1.2 1.328 1.801 2.022 1.295 1.423 2.591 2.876 3.824 4.361 0.411 0.442 0.79 0.885 1.137 1.359 1.137 1.297 2.212 2.591 3.285 3.919 0.663 0.823 1.328 1.644 1.96 2.465 1.644 2.022 3.254 4.078 4.772 6.164 0.031 0.031 0.062 0.093 0.095 0.126 2.591 3.411 5.055 6.919 7.425 10.458 0.663 0.98 1.328 1.96 1.96 2.971 0.883 1.295 1.706 2.591 2.527 3.919 0.38 0.568 0.727 1.137 1.042 1.706 1.201 1.865 2.308 3.729 3.382 5.624 0.188 0.221 0.316 0.442 0.409 0.663 1.297 2.212 2.529 4.425 3.762 6.669 0.663 1.201 1.297 2.37 1.896 3.602 0.632 1.17 1.233 2.339 1.832 3.539 0.601 1.201 1.201 2.37 1.77 3.57 0.411 0.852 0.823 1.675 1.201 2.527 0.632 1.297 1.264 2.624 1.832 3.952 0.696 1.485 1.361 2.969 1.991 4.487 1.706 3.95 3.349 7.993 4.867 12.102 0.314 0.854 0.63 1.739 0.947 2.624 0.663 1.801 1.297 3.602 1.896 5.434 0.568 1.739 1.137 3.475 1.675 5.246 2.055 6.447 3.824 13.020 5.341 19.719 0.378 1.675 0.759 3.38 1.106 5.086 0.062 0.285 0.126 0.599 0.188 0.949 0.442 2.084 0.854 4.171 1.201 6.288 0.347 1.832 0.663 3.729 0.949 5.624 0.188 1.075 0.347 2.181 0.473 3.254 0.252 1.549 0.442 3.128 0.663 4.708 0.221 1.834 0.442 3.698 0.632 5.531 0.504 4.929 0.883 9.89 1.105 14.914 0.095 1.96 0.19 3.919 0.221 5.878 0.064 2.275 0.095 4.551 0.095 6.826 0 2.56-0.031 5.086-0.126 7.615-0.031 1.739-0.095 3.506-0.19 5.246l-0.031 0.031zM765.63 419.573c-5.5-7.898-19.434-7.741-31.127 0.411-11.691 8.122-16.715 21.14-11.218 29.041 5.498 7.898 19.434 7.741 31.125-0.411 11.693-8.153 16.717-21.14 11.22-29.041zM745.311 443.397c-3.221 1.454-6.635 0.823-7.677-1.421-1.011-2.244 0.757-5.246 3.981-6.7s6.637-0.823 7.679 1.421c1.011 2.244-0.759 5.246-3.983 6.7zM808.355 658.466l1.77 71.985c0 0 68.414-8.912 63.642 45.788-4.772 54.731-98.751 41.649-96.348-12.481v-201.040c0 0-10.712-6.826-10.712-11.156v-7.299h70.784c0 0 57.102-0.599 53.53 58.302s-82.664 55.9-82.664 55.9zM809.522 779.208c0 0 35.709 20.224 38.678-7.142 3.223-29.766-38.678-28.313-38.678-28.313v35.454zM808.355 562.717v77.925c45.219 0 55.584-17.253 55.584-39.056 0-43.608-55.584-38.868-55.584-38.868zM794.482 458.090c49.074-10.711 69.898 0 69.898 0s0.283 2.971-10.113 19.025c-8.342-17.854-59.785-19.025-59.785-19.025zM795.649 448.864c0 0 77.325-52.646 76.726-10.113-25.565-7.14-45.316 1.075-76.726 10.113zM1368.086 651.076c0.626-37.902 0.163-91.601-5.266-104.453h29.024c-5.236 21.721-9.519 103.089-6.437 140.662 0.165 1.991 1.201 3.765 2.865 4.883l5.374 2.403v9.249h-34.668v-7.695c0 0 6.682-2.045 7.691-6.167 0.246-0.982 0.656-8.677 0.982-20.029-24.548-37-57.608-49.553-66.147-52.307-1.091 25.786-1.227 52.364 0.192 69.663 0.163 1.991 1.2 3.765 2.863 4.883l5.374 2.403v9.249h-34.668v-7.695c0 0 6.684-2.045 7.693-6.167 1.037-4.12 4.609-123.28-3.847-143.308h29.024c-2.265 9.387-4.338 29.906-5.729 53.236 32.051 9.824 59.327 43.031 65.683 51.245v-0.054z" />
<glyph unicode="&#xe916;" glyph-name="right-long" horiz-adv-x="3868" d="M3449.351-16.575c-33.381-34.231-88.203-34.94-122.45-1.578-34.235 33.388-34.963 88.213-1.582 122.456l250.661 257.088h-3489.411c-47.827 0-86.598 38.77-86.598 86.598s38.771 86.598 86.598 86.598h3489.411l-250.661 257.088-5.866 6.653c-27.296 34.359-24.652 84.502 7.448 115.802 32.099 31.27 82.256 32.651 115.915 4.51l6.535-6.089 394.091-404.125c32.781-33.629 32.781-87.248 0-120.878l-394.091-404.125z" />
<glyph unicode="&#xe917;" glyph-name="down-2" horiz-adv-x="1593" d="M796.501-34.221l796.508 796.511-167.924 167.931-628.585-628.58-628.58 628.58-167.931-167.931 796.511-796.511z" />
<glyph unicode="&#xe918;" glyph-name="up-fill" horiz-adv-x="1365" d="M779.244 877.035c-53.298 61.883-139.856 61.883-193.154 0h-0.427l-545.776-633.682c-38.801-45.547-50.74-113.371-29.421-172.778 21.319-59.409 71.207-98.023 126.211-98.023h1091.551c55.43 0 104.891 38.615 126.21 98.023s9.808 127.231-29.421 172.778l-545.775 633.682z" />
<glyph unicode="&#xe919;" glyph-name="eye-close" d="M702.862 380.873c8.16 21.833 12.299 44.96 12.234 68.266 0 51.751-20.561 101.384-57.155 137.977s-86.226 57.152-137.976 57.152c-23.020-0.033-45.849-4.175-67.413-12.231l45.795-47.218c6.964 1.090 14 1.66 21.049 1.707 36.592 0.077 71.726-14.328 97.735-40.070 26.004-25.741 40.771-60.726 41.073-97.317-0.049-7.049-0.614-14.084-1.708-21.049l46.366-47.218zM961.708 462.508c-95.857 177.209-263.966 284.445-449.992 284.445-50.65-0.109-100.962-8.27-149.049-24.178l45.796-46.080c33.732 8.712 68.415 13.202 103.253 13.369 160.141 0 305.775-89.316 392.535-239.787-31.857-55.806-74.041-105.039-124.303-145.067l40.389-40.389c58.217 46.932 106.555 104.938 142.223 170.664l7.394 13.654-8.246 13.369zM124.872 796.728l126.862-126.862c-80.204-51.61-145.745-123.029-190.293-207.36l-7.396-13.369 7.396-13.653c95.858-177.211 263.964-284.445 449.991-284.445 72.614-0.016 144.283 16.422 209.636 48.074l142.223-142.223 49.777 42.663-739.556 739.557-48.64-42.382zM402.205 519.395l189.154-189.156c-21.364-13.242-45.972-20.329-71.11-20.48-18.263 0-36.347 3.611-53.209 10.628-16.863 7.012-32.171 17.295-45.046 30.246-12.874 12.956-23.060 28.327-29.971 45.234-6.911 16.901-10.411 35.007-10.299 53.271 0.306 24.847 7.387 49.139 20.48 70.258zM360.961 560.639c-26.612-37.53-39.085-83.265-35.211-129.109s23.845-88.836 56.377-121.367c32.532-32.536 75.526-52.504 121.37-56.379 45.841-3.875 91.582 8.602 129.109 35.209l45.509-45.509c-52.682-22.528-109.385-34.142-166.682-34.132-160.142 0-305.778 89.314-392.533 239.784 41.644 73.714 101.603 135.436 174.080 179.2l67.982-67.698z" />
<glyph unicode="&#xe91a;" horiz-adv-x="1044" d="M632.459 427.52l-233.2-233.019c-1.999-1.819-4.123-3.41-6.359-4.762-0.639-0.385-1.266-0.793-1.921-1.139-0.311-0.166-0.643-0.303-0.961-0.461-0.862-0.428-1.735-0.836-2.619-1.2-0.395-0.162-0.801-0.309-1.2-0.459-0.756-0.285-1.511-0.563-2.279-0.801-0.588-0.182-1.186-0.326-1.78-0.479-0.631-0.166-1.264-0.328-1.901-0.461-0.684-0.143-1.37-0.27-2.060-0.379-0.524-0.084-1.053-0.158-1.579-0.221-0.707-0.082-1.413-0.133-2.12-0.18-0.608-0.039-1.212-0.086-1.821-0.1-0.588-0.012-1.174-0.012-1.759 0-0.721 0.016-1.442 0.047-2.161 0.1-0.573 0.043-1.149 0.094-1.72 0.16-0.635 0.074-1.268 0.176-1.901 0.281-0.682 0.113-1.362 0.234-2.040 0.381-0.51 0.111-1.014 0.25-1.52 0.379-0.723 0.186-1.446 0.375-2.161 0.6-0.563 0.178-1.122 0.377-1.679 0.58-0.608 0.223-1.221 0.449-1.821 0.7-0.621 0.262-1.229 0.567-1.839 0.86-0.565 0.272-1.147 0.522-1.7 0.819-0.528 0.287-1.042 0.61-1.561 0.922-0.621 0.371-1.255 0.733-1.86 1.139-0.389 0.262-0.758 0.563-1.141 0.84-1.733 1.258-3.418 2.64-4.979 4.2l-115.862 115.841 57.94 57.94 86.88-86.88 202.76 202.719 57.919-57.919zM650.76 766.88c50.479-0.058 98.865-20.146 134.56-55.839 35.695-35.695 55.783-84.081 55.841-134.562v-450.058c-0.055-50.483-20.144-98.884-55.841-134.58-35.695-35.695-84.081-55.783-134.56-55.841h-450.060c-50.483 0.055-98.883 20.144-134.58 55.841s-55.785 84.097-55.84 134.58v450.058c0.058 50.479 20.146 98.867 55.84 134.562 35.697 35.697 84.097 55.784 134.58 55.839h450.060zM200.7 663.020c-22.95 0-44.97-9.114-61.2-25.34-16.229-16.228-25.357-38.248-25.36-61.2v-450.058c0-22.956 9.129-44.97 25.36-61.2 16.231-16.232 38.246-25.36 61.2-25.36h450.060c22.95 0.002 44.97 9.13 61.2 25.36 16.224 16.23 25.34 38.25 25.34 61.2v450.058c-0.004 22.952-9.112 44.972-25.34 61.2-16.23 16.228-38.25 25.338-61.2 25.34h-450.060z" />
<glyph unicode="&#xe91b;" horiz-adv-x="1044" d="M1034.24 319.539c-0.060-50.483-20.14-98.882-55.842-134.58-35.695-35.693-84.081-55.781-134.56-55.839h-93.559v-102.22h-649.121v649.12h102.2v93.58c0.058 50.479 20.146 98.866 55.841 134.56 35.697 35.697 84.097 55.785 134.578 55.84h450.060c50.479-0.058 98.865-20.145 134.56-55.84 35.693-35.695 55.783-84.081 55.843-134.56v-450.061z" />
<glyph unicode="&#xe91c;" glyph-name="settings" d="M512.003 618.666c-33.754 0-66.752-10.010-94.817-28.762s-49.941-45.408-62.858-76.594c-12.917-31.185-16.297-65.498-9.712-98.607 6.585-33.105 22.839-63.514 46.708-87.381s54.278-40.124 87.383-46.707c33.109-6.588 67.422-3.209 98.607 9.711 31.185 12.915 57.843 34.79 76.595 62.857s28.762 61.065 28.762 94.818c0 45.265-17.98 88.673-49.988 120.68-32.004 32.006-75.413 49.987-120.678 49.987zM512.003 362.666c-16.879 0-33.374 5.005-47.407 14.383-14.033 9.374-24.973 22.703-31.433 38.293-6.455 15.595-8.147 32.751-4.855 49.306 3.294 16.55 11.422 31.757 23.356 43.691s27.14 20.062 43.691 23.356c16.555 3.291 33.711 1.6 49.306-4.855 15.59-6.46 28.919-17.399 38.293-31.433 9.378-14.033 14.383-30.528 14.383-47.407 0-22.63-8.99-44.335-24.994-60.339s-37.709-24.994-60.339-24.994zM908.547 366.932l-18.944 10.923c8.529 46.404 8.529 93.969 0 140.373l18.944 10.923c14.566 8.404 27.337 19.596 37.581 32.936 10.24 13.34 17.758 28.566 22.114 44.81 4.361 16.244 5.474 33.187 3.285 49.863s-7.642 32.756-16.047 47.324c-8.405 14.568-19.597 27.338-32.939 37.581-13.338 10.243-28.565 17.757-44.809 22.116s-33.186 5.474-49.865 3.284c-16.674-2.19-32.755-7.643-47.322-16.047l-18.987-10.965c-35.861 30.638-77.073 54.389-121.557 70.059v21.888c0 33.948-13.487 66.505-37.491 90.51s-56.563 37.49-90.509 37.49c-33.95 0-66.505-13.486-90.511-37.49s-37.49-56.562-37.49-90.51v-21.888c-44.485-15.726-85.681-39.535-121.515-70.229l-19.072 11.051c-29.421 16.974-64.381 21.565-97.187 12.763s-60.772-30.275-77.746-59.697c-16.974-29.421-21.565-64.381-12.763-97.187s30.275-60.773 59.697-77.746l18.944-10.923c-8.529-46.404-8.529-93.969 0-140.373l-18.944-10.923c-29.421-16.973-50.895-44.941-59.697-77.747s-4.21-67.763 12.763-97.186c16.974-29.423 44.94-50.893 77.746-59.695s67.766-4.211 97.187 12.762l18.987 10.965c35.873-30.643 77.098-54.396 121.6-70.059v-21.888c0-33.946 13.486-66.505 37.49-90.509 24.006-24.004 56.561-37.491 90.511-37.491 33.946 0 66.505 13.487 90.509 37.491s37.491 56.563 37.491 90.509v21.888c44.484 15.727 85.679 39.535 121.515 70.229l19.072-11.008c29.419-16.973 64.38-21.564 97.186-12.762s60.774 30.272 77.747 59.695c16.973 29.423 21.564 64.38 12.762 97.186s-30.276 60.774-59.695 77.747l-0.043-0.043zM799.832 528.042c14.447-52.356 14.447-107.644 0-160-2.522-9.114-1.95-18.803 1.634-27.554s9.971-16.064 18.163-20.787l46.251-26.709c9.805-5.658 16.96-14.98 19.891-25.911 2.935-10.935 1.404-22.588-4.254-32.393s-14.98-16.96-25.916-19.895c-10.931-2.931-22.583-1.399-32.388 4.258l-46.336 26.795c-8.196 4.749-17.741 6.63-27.127 5.359-9.387-1.276-18.078-5.636-24.713-12.399-37.978-38.771-85.82-66.432-138.368-80-9.173-2.359-17.301-7.701-23.1-15.185-5.803-7.488-8.947-16.687-8.943-26.159v-53.461c0-11.315-4.497-22.17-12.497-30.17s-18.854-12.497-30.17-12.497c-11.315 0-22.17 4.497-30.17 12.497-8.004 8-12.497 18.854-12.497 30.17v53.419c0.004 9.472-3.14 18.671-8.943 26.159-5.803 7.484-13.931 12.826-23.1 15.185-52.551 13.623-100.381 41.344-138.326 80.171-6.633 6.763-15.328 11.123-24.714 12.399-9.386 1.271-18.929-0.61-27.126-5.359l-46.251-26.752c-4.854-2.846-10.223-4.702-15.798-5.466s-11.246-0.414-16.686 1.024c-5.44 1.438-10.542 3.938-15.012 7.356s-8.219 7.689-11.033 12.561c-2.813 4.873-4.635 10.253-5.361 15.834s-0.34 11.247 1.135 16.678c1.475 5.431 4.008 10.513 7.456 14.963 3.448 4.446 7.741 8.166 12.632 10.948l46.251 26.709c8.19 4.723 14.578 12.036 18.161 20.787s4.159 18.441 1.636 27.554c-14.449 52.356-14.449 107.644 0 160 2.478 9.093 1.875 18.751-1.714 27.465s-9.963 15.995-18.126 20.706l-46.251 26.709c-9.805 5.658-16.961 14.979-19.894 25.914s-1.402 22.585 4.256 32.39c5.658 9.805 14.979 16.961 25.914 19.894s22.585 1.402 32.39-4.256l46.336-26.795c8.174-4.758 17.697-6.665 27.073-5.422s18.073 5.567 24.724 12.291c37.977 38.769 85.821 66.431 138.369 80 9.199 2.365 17.348 7.733 23.151 15.253 5.807 7.52 8.934 16.762 8.892 26.261v53.419c0 11.316 4.493 22.168 12.497 30.17 8 8.001 18.854 12.497 30.17 12.497s22.17-4.495 30.17-12.497c8-8.002 12.497-18.854 12.497-30.17v-53.419c-0.004-9.47 3.14-18.673 8.943-26.158 5.798-7.485 13.926-12.828 23.1-15.186 52.565-13.617 100.412-41.339 138.368-80.171 6.635-6.761 15.326-11.123 24.713-12.398s18.931 0.611 27.127 5.358l46.251 26.752c4.855 2.846 10.223 4.703 15.799 5.466 5.572 0.762 11.243 0.414 16.683-1.024s10.543-3.938 15.014-7.356c4.467-3.418 8.218-7.686 11.029-12.559 2.816-4.873 4.638-10.255 5.363-15.834s0.337-11.248-1.135-16.678c-1.476-5.431-4.006-10.516-7.454-14.962-3.452-4.447-7.744-8.169-12.634-10.95l-46.251-26.709c-8.149-4.724-14.502-12.010-18.078-20.723-3.571-8.713-4.164-18.364-1.677-27.448v0.043z" />
<glyph unicode="&#xe91d;" glyph-name="grid-border" horiz-adv-x="942" d="M870.36 960c33.933 0 61.44-27.508 61.44-61.44v-901.12c0-33.933-27.507-61.44-61.44-61.44l-801.88 0.080c-32.464 1.645-58.28 28.488-58.28 61.36v901.12c0 32.873 25.816 59.715 58.28 61.36l3.16 0.080h798.72zM92.12 17.92h122.88v143.36h-122.88v-143.36zM296.92 17.92h143.36v143.36h-143.36v-143.36zM522.2 17.92h122.88v143.36h-122.88v-143.36zM727 17.92h122.88v143.36h-122.88v-143.36zM92.12 427.52v-184.32h122.88v184.32h-122.88zM296.92 243.2h348.16v430.080h-348.16v-430.080zM727 243.2h122.88v184.32h-122.88v-184.32zM92.12 509.44h122.88v163.84h-122.88v-163.84zM727 509.44h122.88v163.84h-122.88v-163.84zM92.12 755.2h122.88v122.88h-122.88v-122.88zM296.92 755.2h122.88v122.88h-122.88v-122.88zM501.72 755.2h143.36v122.88h-143.36v-122.88zM727 755.2h122.88v122.88h-122.88v-122.88z" />
<glyph unicode="&#xe91e;" glyph-name="filter" horiz-adv-x="1048" d="M595.418 225.905c37.795 0 73.897-15.446 100.419-42.696 20.928-21.504 34.545-48.969 39.35-78.419l291.347-0.117c12.007-1.222 21.373-11.369 21.373-23.697s-9.366-22.476-21.373-23.697l-2.441-0.117h-288.906c-4.803-29.46-18.418-56.98-39.35-78.488-26.519-27.248-62.628-42.675-100.419-42.675-37.814 0-73.899 15.517-100.395 42.744-20.93 21.509-34.53 48.978-39.326 78.419h-431.79c-13.151 0-23.813 10.662-23.814 23.814s10.662 23.814 23.814 23.814h431.79c4.796 29.441 18.396 56.932 39.326 78.441 26.514 27.241 62.614 42.675 100.395 42.675zM595.418 178.277c-24.731 0-48.588-10.102-66.279-28.279-17.708-18.199-27.767-43.015-27.767-69.022s10.059-50.824 27.767-69.022c17.71-18.199 41.577-28.327 66.279-28.327 24.738 0 48.607 10.097 66.303 28.279 17.718 18.211 27.791 43.065 27.791 69.070 0 25.995-10.064 50.805-27.791 69.022-17.696 18.184-41.565 28.279-66.303 28.279zM238.209 592.952c37.785 0 73.904-15.427 100.418-42.675 20.932-21.509 34.509-49 39.303-78.441l648.603-0.117c12.007-1.222 21.373-11.371 21.373-23.697-0.002-12.326-9.368-22.476-21.373-23.697l-2.441-0.117h-646.162c-4.796-29.436-18.377-56.913-39.303-78.419-26.514-27.248-62.631-42.675-100.418-42.675-37.783 0.002-73.881 15.429-100.395 42.675-20.927 21.506-34.506 48.981-39.302 78.419h-74.605c-13.151 0-23.811 10.664-23.814 23.814 0 13.152 10.662 23.814 23.814 23.814h74.605c4.795 29.441 18.371 56.932 39.302 78.441 26.514 27.243 62.614 42.672 100.395 42.675zM238.209 545.324c-24.727-0.002-48.568-10.102-66.256-28.279-17.711-18.199-27.791-43.013-27.791-69.022s10.080-50.826 27.791-69.025c17.688-18.172 41.53-28.253 66.256-28.255 24.73 0 48.59 10.078 66.279 28.255 17.71 18.199 27.767 43.015 27.767 69.025 0 26.007-10.057 50.824-27.767 69.022-17.689 18.177-41.548 28.279-66.279 28.279zM738.302 959.999c18.696 0 37.207-3.78 54.443-11.116 17.232-7.336 32.851-18.072 45.975-31.558s23.49-29.465 30.558-47c4.086-10.135 6.994-20.687 8.744-31.442h146.070c13.152 0 23.814-10.662 23.814-23.814-0.005-13.149-10.664-23.814-23.814-23.814h-146.070c-1.75-10.748-4.663-21.29-8.744-31.418-7.068-17.533-17.437-33.516-30.558-47-13.124-13.486-28.743-24.224-45.975-31.558-17.237-7.337-35.747-11.116-54.443-11.116-37.783 0.002-73.88 15.429-100.395 42.675-20.928 21.505-34.506 48.981-39.303 78.418h-574.696c-13.15 0-23.81 10.665-23.814 23.814 0 13.152 10.662 23.814 23.814 23.814h574.696c4.796 29.443 18.37 56.933 39.303 78.442 26.514 27.243 62.614 42.672 100.395 42.674zM738.302 912.371c-24.721-0.002-48.569-10.086-66.255-28.256-17.71-18.2-27.791-43.037-27.791-69.047 0.002-26.007 10.080-50.825 27.791-69.023 17.687-18.172 41.532-28.253 66.255-28.256 12.259 0 24.428 2.467 35.792 7.302 11.362 4.837 21.725 11.95 30.487 20.953 8.764 9.006 15.758 19.731 20.535 31.582s7.232 24.579 7.232 37.442c0 12.862-2.455 25.592-7.232 37.442s-11.769 22.598-20.535 31.605c-8.759 9-19.13 16.094-30.487 20.93-11.364 4.836-23.533 7.326-35.792 7.326z" />
<glyph unicode="&#xe91f;" glyph-name="add-setting" horiz-adv-x="1006" d="M457.286 583.616c21.027 0 38.086-17.024 38.088-38.088v-114.284h114.284c21.029 0 38.106-17.040 38.106-38.106-0.009-21.058-17.084-38.088-38.106-38.088h-114.284v-114.284c-0.005-21.061-17.064-38.088-38.088-38.088s-38.083 17.028-38.088 38.088v114.284h-114.284c-21.023 0-38.097 17.031-38.106 38.088 0 21.067 17.079 38.106 38.106 38.106h114.284v114.284c0.002 21.065 17.062 38.088 38.088 38.088zM758.995 802.469c48.582 0 89.156-36.354 96.373-83.445 0.752-4.897 1.143-9.918 1.143-15.018 0-1.556-0.053-3.103-0.124-4.643-0.027-0.585-0.069-1.168-0.108-1.75-0.049-0.77-0.112-1.538-0.179-2.304-0.064-0.746-0.132-1.49-0.214-2.233-0.090-0.806-0.194-1.609-0.304-2.41-0.358-2.648-0.81-5.261-1.375-7.839-0.166-0.761-0.351-1.514-0.536-2.267-10.491-42.928-49.038-75.018-94.676-75.018-53.636 0-97.516 44.311-97.516 98.463 0 27.363 11.209 52.199 29.213 70.088 0.614 0.611 1.229 1.211 1.858 1.803 0.364 0.344 0.72 0.699 1.090 1.037 0.607 0.555 1.236 1.085 1.856 1.625 1.788 1.556 3.622 3.058 5.519 4.482 0.541 0.407 1.093 0.801 1.642 1.196 0.742 0.533 1.477 1.077 2.233 1.589 0.417 0.282 0.847 0.545 1.269 0.821 0.885 0.581 1.772 1.162 2.677 1.714 0.435 0.265 0.883 0.509 1.322 0.768 0.894 0.526 1.785 1.056 2.697 1.554 0.898 0.491 1.816 0.948 2.732 1.411 0.441 0.223 0.876 0.462 1.32 0.679 0.686 0.333 1.379 0.647 2.072 0.964 3.606 1.652 7.323 3.099 11.143 4.304 2.683 0.845 5.422 1.55 8.196 2.161 0.4 0.088 0.795 0.203 1.198 0.286 0.514 0.106 1.037 0.17 1.552 0.268 5.819 1.103 11.807 1.714 17.929 1.714zM758.995 763.078c-32.533 0-58.517-26.225-58.517-59.071s25.984-59.071 58.517-59.071c32.533 0 58.517 26.225 58.517 59.071 0 13.259-4.292 25.401-11.482 35.214-7.429 7.676-15.918 14.312-25.232 19.679-6.727 2.695-14.078 4.178-21.804 4.178zM816.905 944.003l11.571-58.463c18.587-7.383 35.353-17.761 50.588-30.142l56.696 19.679 15.232 4.929 7.929-14.161 38.999-67.678 7.929-14.161-11.589-10.465-43.874-38.767c1.6-10.075 3.661-20.153 3.661-30.767s-2.061-20.692-3.661-30.767l43.874-38.767 11.589-10.465-7.929-14.16-38.999-67.678-7.929-14.16-15.232 4.928-21.339 7.411v-413.868c-0.007-105.020-85.457-190.479-190.479-190.479h-533.312c-105.023 0-190.473 85.459-190.479 190.479v533.33c0.002 105.026 85.454 190.479 190.479 190.479h359.477l8.964 15.554 7.929 14.161 15.232-4.929 56.696-19.679c15.236 12.382 32.001 22.759 50.588 30.142l11.571 58.463 3.054 16h109.712l3.054-16zM190.629 774.095c-63.008 0-114.282-51.276-114.284-114.284v-533.33c0.007-63.002 51.279-114.284 114.284-114.284h533.312c63.004 0 114.278 51.281 114.284 114.284v400.262c-3.198-1.501-6.437-2.953-9.75-4.268l-11.571-58.464-3.054-16h-109.712l-3.054 16-11.571 58.464c-18.587 7.384-35.353 17.761-50.588 30.141l-56.696-19.679-15.232-4.928-7.929 14.16-38.999 67.678-7.929 14.16 11.589 10.465 43.874 38.767c-1.6 10.075-3.661 20.153-3.661 30.767s2.061 20.692 3.661 30.767l-44.481 39.321h-332.494zM726.085 869.54l-2.447-11.696-10.964-3.679c-3.628-1.145-7.184-2.475-10.697-3.875l-6.66-2.821c-5.846-2.649-11.496-5.671-16.947-9-8.777-5.375-17.037-11.561-24.607-18.554-0.079-0.073-0.154-0.159-0.232-0.232l-8.536-8-10.964 3.696-49.374 17.232-23.142-39.999 38.999-35.071 9.143-7.375-3.035-11.696c-2.514-11.231-3.661-22.696-3.661-34.464s1.147-23.234 3.661-34.464l3.035-11.696-9.143-7.375-38.999-35.071 23.161-39.999 49.374 17.214 10.964 3.697 8.536-8c16.837-15.614 36.954-27.465 59.124-34.464l10.964-3.679 2.447-11.696 9.75-51.071h46.32l9.75 51.071 2.447 11.696 10.964 3.679c11.595 3.661 22.616 8.68 32.91 14.839 9.381 5.612 18.172 12.184 26.196 19.626l8.536 8 10.982-3.697 49.374-17.214 23.161 39.999-38.999 35.071-3.054 2.642-5.5 4.732 2.447 11.696c0.099 0.443 0.176 0.898 0.269 1.34 0.344 1.607 0.638 3.222 0.927 4.838 0.261 1.532 0.508 3.068 0.733 4.608 0.004-0.037-0.004-0.073 0-0.108 1.147 7.803 1.732 15.718 1.732 23.786 0 11.769-1.147 23.234-3.661 34.464l-3.035 11.696 9.143 7.375 38.999 35.071-23.161 39.999-49.374-17.214-10.964-3.696-8.536 8c-16.837 15.614-36.954 27.465-59.124 34.463l-10.964 3.679-2.447 11.696-9.75 51.070h-46.32l-9.75-51.070z" />
<glyph unicode="&#xe920;" glyph-name="add" d="M725.334 448c0-23.595-19.116-42.666-42.668-42.666h-128v-128c0-23.595-19.114-42.668-42.666-42.668s-42.666 19.073-42.666 42.668v128h-128c-23.552 0-42.668 19.071-42.668 42.666s19.116 42.666 42.668 42.666h128v128c0 23.595 19.114 42.668 42.666 42.668s42.666-19.073 42.666-42.668v-128h128c23.552 0 42.668-19.071 42.668-42.666zM1024 746.666v-597.332c0-117.633-95.701-213.334-213.334-213.334h-597.332c-117.633 0-213.334 95.701-213.334 213.334v597.332c0 117.633 95.701 213.334 213.334 213.334h597.332c117.633 0 213.334-95.701 213.334-213.334zM938.666 746.666c0 70.571-57.428 128.001-128 128.001h-597.332c-70.571 0-128.001-57.429-128.001-128.001v-597.332c0-70.572 57.429-128 128.001-128h597.332c70.572 0 128 57.428 128 128v597.332z" />
<glyph unicode="&#xe921;" glyph-name="search" d="M734.186 145.356l192.7-192.694c22.215-22.215 58.237-22.215 80.452 0s22.215 58.237 0 80.452l-192.694 192.7c59.904 77.062 95.579 173.903 95.579 279.074 0 251.351-203.759 455.112-455.112 455.112s-455.112-203.76-455.112-455.112c0-251.352 203.76-455.112 455.112-455.112 105.171 0 202.012 35.675 279.074 95.579zM796.445 504.888c0-188.513-152.821-341.334-341.334-341.334s-341.334 152.821-341.334 341.334c0 188.513 152.82 341.334 341.334 341.334s341.334-152.82 341.334-341.334z" />
<glyph unicode="&#xe922;" glyph-name="down" horiz-adv-x="1593" d="M716.167 26.239c44.434-44.434 116.594-44.434 161.026 0l682.493 682.496c44.432 44.434 44.432 116.594 0 161.026s-116.589 44.433-161.020 0l-602.163-602.161-602.161 601.805c-44.434 44.434-116.594 44.434-161.026 0s-44.433-116.594 0-161.026l682.496-682.496 0.355 0.355z" />
<glyph unicode="&#xe923;" glyph-name="down-3" horiz-adv-x="1365" d="M638.728-21.222l-638.732 752.030 170.626 174.088 468.105-584.867 543.327 597.192 182.948-186.414-726.276-752.030z" />
<glyph unicode="&#xe924;" glyph-name="reload" horiz-adv-x="1092" d="M202.741 569.428c17.521 49.605 45.965 96.253 86.014 136.074 142.219 142.219 372.727 142.219 514.947 0l38.91-39.139h-78.052c-40.275 0-72.817-32.539-72.817-72.816s32.542-72.816 72.817-72.816h254.629c40.275 0 72.817 32.539 72.817 72.816v254.855c0 40.277-32.542 72.816-72.817 72.816s-72.817-32.539-72.817-72.816v-80.097l-39.818 40.049c-199.107 199.106-521.774 199.106-720.879 0-55.523-55.522-95.571-120.829-120.147-190.686-13.426-38.001 6.599-79.415 44.373-92.84s79.414 6.598 92.84 44.372v0.228zM52.332 372.141c-11.377-3.413-22.3-9.557-31.175-18.659-9.102-9.102-15.245-20.024-18.432-31.857-0.683-2.73-1.366-5.689-1.821-8.647-0.683-3.868-0.91-7.737-0.91-11.605v-253.943c0-40.282 32.539-72.817 72.816-72.817s72.816 32.535 72.816 72.817v79.867l40.049-39.825c199.105-198.875 521.772-198.875 720.647 0 55.522 55.522 95.804 120.831 120.374 190.462 13.425 38.001-6.599 79.414-44.37 92.84s-79.416-6.599-92.841-44.373c-17.52-49.605-45.967-96.251-86.010-136.076-142.222-142.214-372.73-142.214-514.949 0l-0.228 0.232-38.911 38.91h78.278c40.277 0 72.816 32.535 72.816 72.815 0 40.277-32.539 72.816-72.816 72.816h-253.946c-3.641 0-7.282-0.228-10.922-0.683s-7.054-1.138-10.468-2.275z" />
<glyph unicode="&#xe925;" horiz-adv-x="1044" d="M650.759 766.88c50.479-0.058 98.865-20.146 134.56-55.839 35.695-35.695 55.783-84.081 55.841-134.562v-450.058c-0.055-50.483-20.144-98.884-55.841-134.58-35.695-35.691-84.081-55.781-134.56-55.841h-450.060c-50.483 0.050-98.883 20.14-134.58 55.841-35.697 35.697-55.785 84.097-55.84 134.58v450.058c0.058 50.479 20.146 98.867 55.84 134.562 35.697 35.697 84.097 55.784 134.58 55.839h450.060zM200.699 663.020c-22.95 0-44.97-9.114-61.2-25.34-16.229-16.228-25.357-38.248-25.36-61.2v-450.058c0-22.956 9.129-44.97 25.36-61.2 16.231-16.232 38.246-25.36 61.2-25.36h450.060c22.95 0.002 44.97 9.13 61.2 25.36 16.224 16.23 25.34 38.25 25.34 61.2v450.058c-0.004 22.952-9.112 44.972-25.34 61.2-16.23 16.228-38.25 25.338-61.2 25.34h-450.060z" />
<glyph unicode="&#xe926;" glyph-name="menu" horiz-adv-x="1499" d="M0.232 535.415h1498.537v-174.829h-1498.537v174.829zM0.232 110.829h1498.537v-174.829h-1498.537v174.829zM0.232 960h1498.537v-174.829h-1498.537v174.829z" />
<glyph unicode="&#xe927;" glyph-name="down-fill-2" horiz-adv-x="2048" d="M1024-64l1024 1024h-2048l1024-1024z" />
<glyph unicode="&#xe928;" glyph-name="user" horiz-adv-x="1081" d="M540.5 447.999c53.447 0 105.688 15.014 150.13 43.143 44.436 28.13 79.070 68.111 99.521 114.889s25.805 98.251 15.377 147.91c-10.422 49.659-36.159 95.274-73.95 131.077s-85.942 60.184-138.359 70.062c-52.419 9.878-106.752 4.808-156.129-14.568s-91.579-52.188-121.272-94.287c-29.693-42.099-45.541-91.594-45.541-142.226 0.072-67.875 28.564-132.95 79.225-180.945s119.352-74.988 190.997-75.055zM540.5 874.666c35.63 0 70.463-10.010 100.085-28.762 29.628-18.753 52.713-45.408 66.35-76.593s17.203-65.501 10.251-98.607c-6.952-33.106-24.11-63.516-49.3-87.384-25.196-23.868-57.293-40.123-92.24-46.708s-71.168-3.205-104.086 9.712c-32.918 12.917-61.053 34.792-80.848 62.858s-30.36 61.062-30.36 94.817c0 45.264 18.98 88.673 52.764 120.68s79.606 49.987 127.384 49.987zM540.5 362.666c-107.464-0.114-210.493-40.607-286.482-112.594-75.989-71.993-118.732-169.597-118.851-271.406 0-11.315 4.745-22.17 13.191-30.168 8.446-8.004 19.901-12.498 31.846-12.498s23.4 4.494 31.846 12.498c8.446 7.999 13.191 18.853 13.191 30.168 0 79.212 33.215 155.176 92.337 211.189s139.31 87.478 222.922 87.478c83.61 0 163.8-31.465 222.919-87.478 59.125-56.013 92.342-131.977 92.342-211.189 0-11.315 4.745-22.17 13.187-30.168 8.448-8.004 19.905-12.498 31.846-12.498 11.947 0 23.404 4.494 31.846 12.498 8.448 7.999 13.193 18.853 13.193 30.168-0.119 101.808-42.86 199.413-118.852 271.406-75.986 71.987-179.018 112.481-286.481 112.594z" />
<glyph unicode="&#xe929;" glyph-name="menu-alt" horiz-adv-x="4779" d="M1706.833 209.067h3072v-273.067h-3072v273.067zM0.166 960h4778.667v-273.067h-4778.667v273.067z" />
<glyph unicode="&#xe92a;" glyph-name="up" horiz-adv-x="1812" d="M997.364 922.507c-50.53 49.99-132.6 49.99-183.131 0l-776.18-767.851c-50.532-49.987-50.532-131.174 0-181.161 50.533-49.995 132.597-49.995 183.13 0l684.816 677.466 684.819-677.064c50.53-49.995 132.592-49.995 183.131 0 50.53 49.987 50.53 131.174 0 181.161l-776.183 767.849-0.402-0.4z" />
<glyph unicode="&#xe92b;" glyph-name="logo-icon" horiz-adv-x="998" d="M548.26 44.468c-150.448-155.283-352.621-15.66-337.594 98.744 11.853 90.014 165.236 230.535 56.934 272.257-69.865 26.898-133.446-60.549-133.446-60.549s-3.173 24.866 35.501 60.728c46.457 43.037 185.89 102.987 204.507 180.629 18.618 77.583-29.395 163.474-29.395 163.474-45.619-45.546-145.837-25.343-256.053-126.118-104.708-95.691-89.262-202.923-86.030-278.354 0.060-0.297 0.060-0.476 0.060-0.476 19.517-130.96 88.065-247.812 190.559-322.406 253.6-184.574 354.956-7.352 354.956 12.072zM174.686 106.094c0 0-132.307 161.98-109.857 328.262 11.555 85.533 38.016 156.781 105.965 206.391 36.639 26.777 93.692 30.483 150.147 60.25 16.047-59.054 23.769-100.356-2.513-138.61-51.186-74.474-249.648-102.864-194.391-280.745 3.292 54.63 77.049 138.431 127.817 109.74 74.296-41.959-108.18-170.467-77.11-285.287h-0.060zM497.979 857.901c31.069 30.364 8.738 63.297-41.189 69.036-160.386 15.481-383.753-163.654-440.148-359.823 4.85 10.34 121.531 265.205 349.508 315.055 35.5 10.101 82.736 13.21 80.702-15.84-1.676-24.447 36.578-22.653 51.127-8.428zM247.38 536.098c34.545 34.488 48.672 76.388 31.489 93.48-17.182 17.154-59.088 3.051-93.632-31.437-34.544-34.49-48.672-76.388-31.49-93.483 17.182-17.154 59.089-3.048 93.633 31.44zM182.485 352.722c-17.661-20.082-21.852-45.247-9.4-56.184 12.452-10.939 36.938-3.528 54.599 16.555s21.852 45.247 9.4 56.186c-12.452 10.936-36.939 3.526-54.599-16.558zM481.774-63.524c31.55-1.136 72.14 2.27 72.14 2.27s100.279 41.064 100.279 167.361c0 0-49.572-153.851-172.419-169.631zM318.351 41.138c143.682-64.971 222.050 55.288 287.962 207.166 39.991 92.109 89.563 177.64 257.493 262.037-309.876-57.378-262.101-287.679-407.459-427.184-72.442-69.513-137.997-41.959-137.997-41.959v-0.059zM997.34 453.309c-0.118 3.226-0.3 6.453-0.538 9.622-0.179 2.152-0.3 4.304-0.479 6.456-0.84 10.519-2.037 20.921-3.533 31.261-0.479 3.346-1.019 6.694-1.555 9.982-0.54 3.405-1.138 6.814-1.796 10.22-0.3 1.614-0.599 3.229-0.899 4.842-0.479 2.213-0.899 4.424-1.376 6.635-0.3 1.735-0.719 3.526-1.138 5.261-0.658 3.168-1.435 6.336-2.213 9.504-0.778 3.467-1.676 6.873-2.574 10.281-0.42 1.612-0.899 3.226-1.317 4.842-0.54 1.973-1.077 4.004-1.676 5.977-0.599 2.032-1.197 4.063-1.858 6.095-0.778 2.751-1.676 5.498-2.574 8.249-1.197 3.884-2.513 7.771-3.889 11.597-1.079 3.168-2.216 6.394-3.413 9.504-1.077 2.869-2.155 5.678-3.293 8.488-1.435 3.764-2.994 7.47-4.55 11.116 0 0.12-0.059 0.241-0.12 0.361-1.555 3.705-3.173 7.352-4.849 10.936-1.256 2.93-2.633 5.798-4.010 8.667-0.599 1.315-1.259 2.631-1.916 4.004-1.317 2.751-2.695 5.44-4.071 8.129-0.241 0.599-0.599 1.256-0.957 1.914-1.317 2.569-2.636 5.080-4.071 7.65-0.481 1.074-1.079 2.152-1.678 3.226-1.794 3.168-3.531 6.336-5.386 9.504-1.676 2.989-3.413 5.918-5.149 8.846-0.599 0.957-1.197 1.973-1.796 2.93-1.438 2.27-2.815 4.483-4.25 6.753-0.66 1.136-1.379 2.213-2.157 3.346-1.855 2.93-3.83 5.859-5.806 8.788-2.096 3.108-4.25 6.276-6.466 9.325-0.179 0.299-0.42 0.598-0.658 0.897-2.096 2.989-4.253 5.917-6.466 8.846-0.179 0.299-0.361 0.598-0.599 0.837-2.275 3.109-4.67 6.156-7.065 9.205-2.454 3.168-4.97 6.276-7.543 9.325-1.497 1.913-3.053 3.765-4.67 5.618-1.916 2.271-3.892 4.543-5.926 6.814-2.275 2.57-4.55 5.141-6.886 7.65-5.208 5.678-10.476 11.178-15.985 16.556-1.555 1.614-3.112 3.168-4.729 4.662-2.275 2.212-4.55 4.363-6.825 6.455-2.515 2.391-5.090 4.722-7.663 6.993-2.935 2.63-5.987 5.26-8.982 7.83-3.053 2.63-6.105 5.141-9.22 7.65-3.053 2.51-6.225 5.021-9.34 7.412-3.112 2.391-6.225 4.722-9.34 7.053-0.059 0.060-0.179 0.12-0.238 0.179 2.754 1.973 5.328 4.304 7.602 6.934 19.757 22.593 13.232 60.608-14.608 84.815-27.837 24.208-66.393 25.522-86.148 2.87l-73.458-6.575c-2.037-0.179-2.216-3.049-0.241-3.526 20.115-4.782 60.705-15.601 62.563-25.702 0.3-4.423 1.077-8.906 2.454-13.389 3.771-12.911 11.735-25.463 23.408-35.623 16.105-14.046 35.861-20.381 53.461-18.828 34.485-31.738 65.976-71.785 91.418-118.527 40.17-73.757 58.131-151.16 55.019-218.463-57.832-34.429-118.419-102.749-149.549-186.606-30.714-82.664-33.168-187.085-28.078-264.726-63.939-29.528-97.644-43.695-126.382-91.869 60.408 13.986 116.564 38.909 166.373 72.501 5.087 3.408 10.056 6.935 14.966 10.519 2.754 2.034 5.447 4.004 8.080 6.097 0.84 0.538 1.617 1.195 2.395 1.852 3.592 2.69 7.185 5.557 10.716 8.429 3.115 2.569 6.228 5.141 9.34 7.83 1.737 1.433 3.413 2.869 5.090 4.422 2.633 2.272 5.208 4.603 7.722 6.935 0.599 0.479 1.138 1.016 1.737 1.614 2.395 2.152 4.788 4.422 7.124 6.694 1.735 1.673 3.472 3.346 5.149 5.080 2.874 2.751 5.626 5.56 8.321 8.429 2.874 2.93 5.688 5.918 8.441 8.907 1.138 1.253 2.275 2.51 3.413 3.823 2.454 2.692 4.908 5.44 7.244 8.249 0.778 0.837 1.497 1.673 2.155 2.569 2.155 2.451 4.191 4.903 6.225 7.413 1.259 1.553 2.515 3.109 3.713 4.662 3.112 3.825 6.167 7.709 9.040 11.656 0.059 0.059 0.12 0.179 0.179 0.238 4.908 6.456 9.578 13.091 14.068 19.785 1.256 1.852 2.515 3.707 3.713 5.619 1.676 2.451 3.231 4.9 4.788 7.413 0.719 1.074 1.379 2.149 1.978 3.226 2.275 3.526 4.37 7.052 6.405 10.639 0.358 0.417 0.599 0.837 0.778 1.253 2.454 4.186 4.79 8.37 7.124 12.612 1.259 2.272 2.457 4.483 3.592 6.814 1.197 2.211 2.336 4.424 3.472 6.694 1.138 2.272 2.275 4.483 3.352 6.755 0.781 1.614 1.558 3.168 2.275 4.783 1.197 2.449 2.395 4.959 3.474 7.47 1.315 2.81 2.574 5.619 3.769 8.488 3.234 7.472 6.348 15.123 9.222 22.893 0.599 1.614 1.197 3.288 1.794 4.962 1.259 3.405 2.457 6.814 3.592 10.279 1.077 3.288 2.157 6.576 3.173 9.923 3.892 12.192 7.244 24.625 10.117 37.298 0.719 3.168 1.438 6.397 2.096 9.624 0.12 0.538 0.241 1.136 0.361 1.794 0.837 3.943 1.614 7.888 2.275 11.893 0.658 3.467 1.256 7.055 1.796 10.639 0.358 2.032 0.658 4.125 0.899 6.156 0.479 2.93 0.837 5.918 1.256 8.907 0.42 3.464 0.837 6.993 1.197 10.458 0.957 9.325 1.676 18.71 2.096 28.214 0.179 3.705 0.358 7.411 0.417 11.118 0.12 4.301 0.182 8.605 0.182 12.909 0 4.842-0.061 9.624-0.241 14.406-0.059 3.285-0.179 6.635-0.358 9.92l-0.061 0.061zM789.422 850.905c-10.419-14.943-36.819-14.644-58.97 0.777-22.152 15.361-31.67 39.987-21.253 54.929s36.819 14.644 58.97-0.777c22.149-15.421 31.67-39.986 21.253-54.929zM750.942 895.984c-6.105 2.75-12.571 1.554-14.547-2.69-1.916-4.244 1.435-9.922 7.543-12.671 6.105-2.75 12.571-1.554 14.547 2.69 1.916 4.244-1.435 9.922-7.543 12.671zM844.055 923.775c92.975-20.263 132.428 0 132.428 0s0.538 5.618-19.158 35.982c-15.806-33.771-113.271-35.982-113.271-35.982zM846.356 906.332c0 0 146.495-99.578 145.358-19.127-48.433-13.508-85.851 2.032-145.358 19.127z" />
<glyph unicode="&#xe92c;" glyph-name="vk" horiz-adv-x="985" d="M915.887 871.388c-69.112 69.114-180.378 69.114-402.867 69.114h-41.039c-222.489 0-333.754 0-402.868-69.114s-69.114-180.378-69.114-402.868v-41.039c0-222.489 0-333.712 69.114-402.867s180.378-69.115 402.868-69.115h41.039c222.489 0 333.712 0 402.867 69.115 69.115 69.112 69.115 180.378 69.115 402.867v41.039c0 222.489 0 333.754-69.115 402.868zM800.436 242.793h-71.822c-27.375 0-35.421 21.832-84.135 70.55-42.643 41.082-60.905 46.417-71.535 46.417-14.488 0-18.797-4.106-18.797-24.625v-64.395c0-17.647-5.622-27.947-51.303-27.947-76.090 0-159.735 46.212-219.122 131.415-89.060 124.808-113.399 219.162-113.399 238.165 0 10.671 4.104 20.315 24.625 20.315h71.864c18.346 0 25.241-8.044 32.136-27.908 35.132-102.317 94.396-191.748 118.733-191.748 9.114 0 13.297 4.228 13.297 27.375v105.766c-2.667 48.674-28.565 52.697-28.565 70.016 0 8.003 6.856 16.499 18.266 16.499h112.905c15.228 0 20.52-8.126 20.52-26.389v-142.29c0-15.189 6.608-20.523 11.166-20.523 9.153 0 16.745 5.335 33.49 22.080 51.752 57.828 88.28 146.849 88.28 146.849 4.598 10.671 12.97 20.315 31.276 20.315h71.822c21.71 0 26.307-11.163 21.71-26.389-9.153-41.86-96.652-165.112-96.652-165.112-7.636-12.187-10.673-18.262 0-31.97 7.632-10.673 32.71-31.974 49.455-51.756 30.862-34.72 54.132-63.982 60.617-84.174 5.992-20.275-4.307-30.535-24.83-30.535z" />
<glyph unicode="&#xe92d;" glyph-name="tg" horiz-adv-x="985" d="M492.5 940.502c-271.984 0-492.502-220.518-492.502-492.502s220.518-492.502 492.502-492.502c271.983 0 492.502 220.519 492.502 492.502s-220.519 492.502-492.502 492.502zM720.772 605.56c-7.388-77.857-39.479-266.855-55.775-354.067-6.895-36.938-20.52-49.289-33.651-50.48-28.608-2.628-50.318 18.919-78.024 37.060-43.336 28.399-67.839 46.090-109.906 73.832-48.635 32.056-17.116 49.664 10.587 78.434 7.266 7.549 133.263 122.18 135.725 132.562 0.288 1.316 0.614 6.158-2.297 8.703-2.915 2.545-7.143 1.683-10.181 0.985-4.35-0.985-73.588-46.748-207.752-137.286-19.659-13.502-37.472-20.071-53.436-19.74-17.566 0.366-51.384 9.929-76.543 18.14-30.822 10.012-55.366 15.35-53.232 32.34 1.108 8.865 13.298 17.935 36.609 27.21 143.564 62.548 239.313 103.796 287.211 123.743 136.79 56.884 165.193 66.775 183.742 67.103 23.23 0.328 28.813-18.838 26.923-38.538z" />
<glyph unicode="&#xe92e;" glyph-name="grid-small" d="M192.019 213.329h-106.666c-22.632 0-44.335-8.991-60.339-24.994s-24.994-37.708-24.994-60.337v-106.667c0-22.63 8.99-44.334 24.994-60.337s37.708-24.994 60.339-24.994h106.666c22.632 0 44.336 8.991 60.339 24.994s24.993 37.708 24.993 60.337v106.667c0 22.63-8.99 44.334-24.993 60.337s-37.708 24.994-60.339 24.994zM192.019 21.331h-106.666v106.667h106.666v-106.667zM938.649 213.329h-106.667c-22.63 0-44.334-8.991-60.337-24.994s-24.994-37.708-24.994-60.337v-106.667c0-22.63 8.991-44.334 24.994-60.337s37.708-24.994 60.337-24.994h106.667c22.63 0 44.338 8.991 60.341 24.994s24.99 37.708 24.99 60.337v106.667c0 22.63-8.987 44.334-24.99 60.337s-37.712 24.994-60.341 24.994zM938.649 21.331h-106.667v106.667h106.667v-106.667zM192.019 586.684h-106.666c-22.632 0-44.335-8.99-60.339-24.993-16.003-16.005-24.994-37.71-24.994-60.339v-106.667c0-22.63 8.99-44.334 24.994-60.337s37.708-24.994 60.339-24.994h106.666c22.632 0 44.336 8.991 60.339 24.994s24.993 37.708 24.993 60.337v106.667c0 22.63-8.99 44.334-24.993 60.339-16.003 16.003-37.708 24.993-60.339 24.993zM192.019 394.685h-106.666v106.667h106.666v-106.667zM938.649 586.684h-106.667c-22.63 0-44.334-8.99-60.337-24.993-16.003-16.005-24.994-37.71-24.994-60.339v-106.667c0-22.63 8.991-44.334 24.994-60.337s37.708-24.994 60.337-24.994h106.667c22.63 0 44.338 8.991 60.341 24.994s24.99 37.708 24.99 60.337v106.667c0 22.63-8.987 44.334-24.99 60.339-16.003 16.003-37.712 24.993-60.341 24.993zM938.649 394.685h-106.667v106.667h106.667v-106.667zM192.019 960h-106.666c-22.632 0-44.335-8.99-60.339-24.994s-24.994-37.708-24.994-60.339v-106.666c0-22.632 8.99-44.336 24.994-60.339s37.708-24.993 60.339-24.993h106.666c22.632 0 44.336 8.99 60.339 24.993s24.993 37.708 24.993 60.339v106.666c0 22.632-8.99 44.335-24.993 60.339s-37.708 24.994-60.339 24.994zM192.019 768.002h-106.666v106.666h106.666v-106.666zM565.373 213.329h-106.663c-22.634 0-44.338-8.991-60.34-24.994s-24.994-37.708-24.994-60.337v-106.667c0-22.63 8.991-44.334 24.994-60.337s37.707-24.994 60.34-24.994h106.663c22.634 0 44.338 8.991 60.341 24.994s24.994 37.708 24.994 60.337v106.667c0 22.63-8.991 44.334-24.994 60.337s-37.708 24.994-60.341 24.994zM565.373 21.331h-106.663v106.667h106.663v-106.667zM565.373 586.684h-106.663c-22.634 0-44.338-8.99-60.34-24.993-16.003-16.005-24.994-37.71-24.994-60.339v-106.667c0-22.63 8.991-44.334 24.994-60.337s37.707-24.994 60.34-24.994h106.663c22.634 0 44.338 8.991 60.341 24.994s24.994 37.708 24.994 60.337v106.667c0 22.63-8.991 44.334-24.994 60.339-16.003 16.003-37.708 24.993-60.341 24.993zM565.373 394.685h-106.663v106.667h106.663v-106.667zM565.373 960h-106.663c-22.634 0-44.338-8.99-60.34-24.994s-24.994-37.708-24.994-60.339v-106.666c0-22.632 8.991-44.336 24.994-60.339s37.707-24.993 60.34-24.993h106.663c22.634 0 44.338 8.99 60.341 24.993s24.994 37.708 24.994 60.339v106.666c0 22.632-8.991 44.335-24.994 60.339s-37.708 24.994-60.341 24.994zM565.373 768.002h-106.663v106.666h106.663v-106.666zM938.649 960h-106.667c-22.63 0-44.334-8.99-60.337-24.994s-24.994-37.708-24.994-60.339v-106.666c0-22.632 8.991-44.336 24.994-60.339s37.708-24.993 60.337-24.993h106.667c22.63 0 44.338 8.99 60.341 24.993s24.99 37.708 24.99 60.339v106.666c0 22.632-8.987 44.335-24.99 60.339s-37.712 24.994-60.341 24.994zM938.649 768.002h-106.667v106.666h106.667v-106.666z" />
<glyph unicode="&#xe92f;" glyph-name="grid" d="M879.573 960h-180.509c-38.302 0-75.034-15.215-102.112-42.297-27.083-27.082-42.299-63.812-42.299-102.112v-180.511c0-38.3 15.217-75.030 42.299-102.113 27.079-27.083 63.811-42.295 102.112-42.295h180.509c38.302 0 75.030 15.213 102.112 42.295s42.295 63.813 42.295 102.113v180.511c0 38.3-15.213 75.030-42.295 102.112s-63.811 42.297-102.112 42.297zM879.573 635.080h-180.509v180.511h180.509v-180.511zM879.573 405.325h-180.509c-38.302 0-75.034-15.213-102.112-42.295-27.083-27.083-42.299-63.815-42.299-102.112v-180.513c0-38.298 15.217-75.030 42.299-102.112 27.079-27.083 63.811-42.295 102.112-42.295h180.509c38.302 0 75.030 15.213 102.112 42.295s42.295 63.815 42.295 102.112v180.513c0 38.298-15.213 75.030-42.295 102.112s-63.811 42.295-102.112 42.295zM879.573 80.405h-180.509v180.513h180.509v-180.513zM324.939 405.325h-180.511c-38.3 0-75.030-15.213-102.112-42.295s-42.297-63.815-42.297-102.112v-180.513c0-38.298 15.215-75.030 42.297-102.112s63.812-42.295 102.112-42.295h180.511c38.3 0 75.030 15.213 102.113 42.295s42.295 63.815 42.295 102.112v180.513c0 38.298-15.213 75.030-42.295 102.112s-63.813 42.295-102.113 42.295zM324.939 80.405h-180.511v180.513h180.511v-180.513zM324.939 960h-180.511c-38.3 0-75.030-15.215-102.112-42.297s-42.297-63.812-42.297-102.112v-180.511c0-38.3 15.215-75.030 42.297-102.113s63.812-42.295 102.112-42.295h180.511c38.3 0 75.030 15.213 102.113 42.295s42.295 63.813 42.295 102.113v180.511c0 38.3-15.213 75.030-42.295 102.112s-63.813 42.297-102.113 42.297zM324.939 635.080h-180.511v180.511h180.511v-180.511z" />
<glyph unicode="&#xe930;" glyph-name="bell" d="M517.325 959.917c23.292 0 46.797-2.113 69.833-6.25 6.007-1.068 11.652-2.992 16.875-5.542 142.69-35.241 255.582-146.85 288.333-293.542l84.582-314.334c2.547-11.383 3.989-22.839 4.459-34.249 0.038-0.892 0.055-1.779 0.081-2.667 0.073-2.59 0.077-5.171 0.043-7.753-0.021-1.515-0.068-3.025-0.124-4.54-0.085-2.197-0.175-4.395-0.333-6.583-0.085-1.143-0.23-2.278-0.333-3.418-0.23-2.547-0.461-5.090-0.794-7.625-0.094-0.713-0.23-1.417-0.333-2.125-4.8-33.579-18.479-65.66-40.499-92.958-26.871-33.297-63.403-56.124-104.043-66.044-0.794-0.192-1.574-0.439-2.377-0.623-14.182-3.273-28.864-5.001-43.789-5.001h-59.708c-24.021-97.83-111.663-170.662-216.917-170.667l-0.166 0.043-0.124-0.043c-101.969 0.004-187.381 68.365-214.458 161.583l-2.458 9.084h-59.708c-14.941 0-29.638 1.724-43.833 5.001-0.798 0.183-1.58 0.431-2.375 0.623-40.624 9.924-77.139 32.759-104 66.044-22.023 27.298-35.741 59.375-40.541 92.958-0.103 0.708-0.238 1.417-0.333 2.125-0.333 2.534-0.561 5.077-0.792 7.625-0.105 1.139-0.249 2.274-0.333 3.418-0.158 2.189-0.251 4.386-0.333 6.583-0.058 1.515-0.105 3.025-0.125 4.54-0.035 2.581 0.013 5.163 0.083 7.753 0.026 0.887 0.003 1.779 0.042 2.667 0.468 11.409 1.954 22.861 4.5 34.249l84.583 314.334c32.747 146.678 145.619 258.29 288.29 293.542 5.232 2.558 10.895 4.472 16.916 5.542 23.036 4.137 46.541 6.25 69.833 6.25 1.728 0.001 3.447-0.063 5.167-0.083 1.737 0.021 3.469 0.084 5.21 0.083zM512.115 831.833c-124.149-2.316-228.983-87.151-255.998-207.916l-82.124-305.167c-0.241-1.212-0.402-2.304-0.625-3.251-5.461-19.584-1.666-39.283 10.75-55.539 5.993-7.859 13.381-13.973 21.708-18.253 4.718-2.389 9.705-4.233 14.917-5.414 4.792-1.084 9.777-1.668 14.916-1.668h552.957c20.727 0.004 39.083 8.998 51.541 25.335 12.412 16.256 16.209 35.955 10.748 55.539-0.222 0.947-0.384 2.039-0.623 3.251l-82.125 305.167c-27.021 120.779-131.874 205.618-256.043 207.916z" />
<glyph unicode="&#xe931;" glyph-name="close3" d="M914.727 941.243c24.98 24.979 65.502 24.952 90.498 0 24.992-24.992 24.992-65.504 0-90.498l-402.737-402.736 402.737-402.736 8.249-10c16.404-24.841 13.62-58.627-8.249-80.498-21.87-21.869-55.656-24.654-80.498-8.249l-10 8.249-402.736 402.737-402.736-402.737c-24.993-24.992-65.505-24.992-90.498 0-24.952 24.997-24.979 65.519 0 90.498l402.736 402.736-402.736 402.736-8.249 10c-16.369 24.836-13.606 58.641 8.249 80.498s55.661 24.62 80.498 8.249l10-8.249 402.736-402.736 402.736 402.736z" />
<glyph unicode="&#xe932;" glyph-name="left" horiz-adv-x="640" d="M23.433 499.64c-31.244-28.562-31.244-74.947 0-103.508l479.907-438.71c31.244-28.563 81.984-28.563 113.228 0 31.244 28.561 31.244 74.945 0 103.507l-423.418 387.071 423.168 387.070c31.244 28.562 31.244 74.946 0 103.508s-81.984 28.562-113.229 0l-479.656-438.938z" />
<glyph unicode="&#xe933;" glyph-name="right" horiz-adv-x="640" d="M616.567 396.36c31.244 28.562 31.244 74.947 0 103.508l-479.907 438.71c-31.244 28.563-81.984 28.563-113.228 0-31.244-28.561-31.244-74.945 0-103.507l423.418-387.071-423.168-387.070c-31.244-28.562-31.244-74.946 0-103.508s81.984-28.562 113.229 0l479.656 438.938z" />
<glyph unicode="&#xe934;" glyph-name="tick" horiz-adv-x="1463" d="M551.074-45.827c26.646-0.018 53.030 5.255 77.625 15.508s46.908 25.285 65.65 44.225l743.68 743.68-181.077 180.566-705.878-705.878-307.712 307.627-181.077-180.992 345.429-345.429c18.795-18.865 41.14-33.82 65.747-44 24.605-10.179 50.985-15.382 77.613-15.307z" />
<glyph unicode="&#xe935;" glyph-name="edit2" horiz-adv-x="983" d="M824.914 959.52l158.126-158.124-120.545-120.596-158.122 158.124 120.541 120.596zM245.76 222.241h158.124l384.084 384.083-158.126 158.124-384.082-384.085v-158.122zM837.403 81.637h-567.444c-1.361 0-2.774-0.524-4.135-0.524-1.727 0-3.454 0.471-5.233 0.524h-155.914v732.727h358.357l104.677 104.676h-463.034c-57.729 0-104.676-46.895-104.676-104.676v-732.727c0-57.782 46.947-104.677 104.676-104.677h732.727c27.763 0 54.387 11.026 74.019 30.659s30.659 46.256 30.659 74.019v453.661l-104.677-104.673v-348.987z" />
<glyph unicode="&#xe936;" glyph-name="dots" d="M512 561.778c62.838 0 113.778-50.94 113.778-113.778s-50.94-113.778-113.778-113.778c-62.838 0-113.778 50.94-113.778 113.778s50.94 113.778 113.778 113.778zM910.222 561.778c62.838 0 113.778-50.94 113.778-113.778s-50.94-113.778-113.778-113.778c-62.838 0-113.778 50.94-113.778 113.778s50.94 113.778 113.778 113.778zM113.778 561.778c62.838 0 113.778-50.94 113.778-113.778s-50.94-113.778-113.778-113.778c-62.838 0-113.778 50.94-113.778 113.778s50.94 113.778 113.778 113.778z" />
<glyph unicode="&#xe937;" glyph-name="resize-both" d="M1024 448c0-282.768-229.232-512-512-512-282.77 0-512 229.232-512 512 0 282.77 229.23 512 512 512 282.768 0 512-229.23 512-512zM303.407 618.667l-221.222-170.667 221.222-170.667v341.333zM512 877.852l-170.667-221.222h341.333l-170.667 221.222zM341.333 239.407l170.667-221.222 170.667 221.222h-341.333zM726.926 618.667v-341.333l221.222 170.667-221.222 170.667z" />
<glyph unicode="&#xe938;" glyph-name="resize-ver" d="M512-64c-282.768 0-512 229.232-512 512 0 282.77 229.232 512 512 512 282.77 0 512-229.23 512-512 0-282.768-229.23-512-512-512zM796.444 542.815l-284.444 265.481-284.444-265.481h568.889zM796.444 355.631h-568.889l284.444-265.481 284.444 265.481z" />
<glyph unicode="&#xe939;" glyph-name="resize-hor" d="M1024 448c0-282.768-229.232-512-512-512-282.77 0-512 229.232-512 512 0 282.77 229.23 512 512 512 282.768 0 512-229.23 512-512zM417.185 732.444l-265.481-284.444 265.481-284.444v568.889zM604.369 732.444v-568.889l265.481 284.444-265.481 284.444z" />
<glyph unicode="&#xe93a;" glyph-name="zoom-out" horiz-adv-x="975" d="M194.998 496.75c0 26.925 21.827 48.75 48.75 48.75h390.003c26.925 0 48.75-21.826 48.75-48.75s-21.826-48.75-48.75-48.75h-390.003c-26.924 0-48.75 21.826-48.75 48.75zM781.557 222.885l179.168-179.168c19.037-19.037 19.037-49.906 0-68.943s-49.906-19.037-68.943 0l-179.168 179.168c-75.061-60.041-170.271-95.945-273.865-95.945-242.317 0-438.753 196.435-438.753 438.753 0 242.317 196.437 438.753 438.753 438.753 242.319 0 438.753-196.437 438.753-438.753 0-103.594-35.905-198.804-95.945-273.865zM438.75 155.498c188.469 0 341.252 152.784 341.252 341.252s-152.784 341.252-341.252 341.252c-188.468 0-341.252-152.784-341.252-341.252s152.784-341.252 341.252-341.252z" />
<glyph unicode="&#xe93b;" glyph-name="zoom-in" d="M512.002 703.999c0 28.277-22.923 51.2-51.2 51.2s-51.2-22.923-51.2-51.2v-153.6h-153.6c-28.277 0-51.2-22.923-51.2-51.2s22.923-51.2 51.2-51.2h153.6v-153.6c0-28.278 22.923-51.2 51.2-51.2s51.2 22.922 51.2 51.2v153.6h153.6c28.278 0 51.2 22.923 51.2 51.2s-22.922 51.2-51.2 51.2h-153.6v153.6zM748.428 139.166l188.17-188.17c19.994-19.994 52.413-19.994 72.407 0s19.994 52.413 0 72.407l-188.17 188.17c63.058 78.833 100.767 178.826 100.767 287.626 0 254.493-206.305 460.801-460.801 460.801-254.493 0-460.801-206.307-460.801-460.801s206.307-460.801 460.801-460.801c108.8 0 208.794 37.709 287.626 100.767zM819.202 499.199c0-197.939-160.461-358.401-358.401-358.401s-358.401 160.461-358.401 358.401c0 197.939 160.461 358.401 358.401 358.401s358.401-160.461 358.401-358.401z" />
<glyph unicode="&#xe93c;" glyph-name="down-circle" d="M0 448c0 282.77 229.23 512 512 512 282.767 0 512-229.23 512-512 0-282.767-229.233-512-512-512-282.77 0-512 229.233-512 512zM315.75 540.95c-11.42-12.492-11.409-32.801 0-45.3l175.5-191.998 0.1 0.097c11.422-12.477 29.979-12.483 41.401 0l175.498 192.001c11.407 12.499 11.418 32.808 0 45.3-11.418 12.487-29.972 12.473-41.4 0l-154.849-169.399-154.85 169.299c-11.426 12.473-29.982 12.486-41.4 0z" />
<glyph unicode="&#xe93d;" glyph-name="tick-circle" d="M512-64c-282.778 0-512 229.222-512 512s229.222 512 512 512c282.778 0 512-229.222 512-512s-229.222-512-512-512zM451.738 338.432l-141.568 141.67-54.17-54.17 159.693-159.795c9.602-9.6 22.622-14.991 36.198-14.991s26.597 5.391 36.198 14.991l304.742 304.64-54.374 54.374-286.72-286.72z" />
</font>
</defs>
</svg>
